查看: 96|回復: 2
打印 上一主題 下一主題

[劇情片] 湯姆叔叔的小屋/黑奴吁天錄 Uncle.Toms.Cabin.1927.1080p.BluRay.x264.DTS-FGT 10.38GB

[復制鏈接]

 成長值: 5550

級別:資源管理組

注冊時間
2017-10-20
最后登錄
2020-6-5
聽眾
1
收聽
0
主題
96427
藍光幣
155466 枚
貢獻
20805 點
跳轉到指定樓層
樓主
發表于 2019-10-11 12:49:19 | 只看該作者 |只看大圖 回帖獎勵 |倒序瀏覽 |閱讀模式


譯  名 湯姆叔叔的小屋 / 黑奴吁天錄
片  名 Uncle Tom's Cabin
年  代 1927
產  地 美國
類  別 劇情 / 歷史
語  言 英語
上映日期 1927-11-04
IMDb評分  6.8/10 from 351 users
IMDb鏈接  http://www.imdb.com/title/tt0018524
豆瓣評分 0/10 from 0 users
豆瓣鏈接 https://movie.douban.com/subject/4927380/
片  長 144 分鐘
導  演 Harry A. Pollard
編  劇 Harriet Beecher Stowe / Harvey F. Thew
主  演 Margarita Fischer
       James B. Lowe
       J. Gordon Russell
       Gertrude Howard
       Jack Mower
       Vivien Oakland
       John Roche
       Arthur Edmund Carewe
       George Siegmann
       Eulalie Jensen
       Mona Ray
       Virginia Grey
       Lassie Lou Ahern
       Lucien Littlefield
       Adolph Milar


標  簽 1920s | 默片 | 電影 | 美片 | 美國 | 名著改編 | 北美 | 美國

簡  介  

  暫無相關劇情介紹
  1. Video
  2. ID                                       : 1
  3. Format                                   : AVC
  4. Format/Info                              : Advanced Video Codec
  5. Format profile                           : [email protected]
  6. Format settings                          : CABAC / 4 Ref Frames
  7. Format settings, CABAC                   : Yes
  8. Format settings, Reference frames        : 4 frames
  9. Codec ID                                 : V_MPEG4/ISO/AVC
  10. Duration                                 : 1 h 54 min
  11. Bit rate                                 : 11.5 Mb/s
  12. Width                                    : 1 448 pixels
  13. Height                                   : 1 080 pixels
  14. Display aspect ratio                     : 4:3
  15. Frame rate mode                          : Constant
  16. Frame rate                               : 23.976 (24000/1001) FPS
  17. Color space                              : YUV
  18. Chroma subsampling                       : 4:2:0
  19. Bit depth                                : 8 bits
  20. Scan type                                : Progressive
  21. Bits/(Pixel*Frame)                       : 0.307
  22. Stream size                              : 9.18 GiB (88%)
  23. Title                                    : Uncle.Toms.Cabin.1927.1080p.BluRay.x264.DTS-FGT
  24. Writing library                          : x264 core 148 r2795M aaa9aa8
  25. Encoding settings                        : cabac=1 / ref=4 / deblock=1:-2:-2 / analyse=0x3:0x113 / me=umh / subme=9 / psy=1 / psy_rd=1.00:0.15 / mixed_ref=1 / me_range=16 / chroma_me=1 / trellis=2 / 8x8dct=1 / cqm=0 / deadzone=21,11 / fast_pskip=1 / chroma_qp_offset=-3 / threads=48 / lookahead_threads=3 / sliced_threads=0 / nr=0 / decimate=1 / interlaced=0 / bluray_compat=0 / constrained_intra=0 / bframes=3 / b_pyramid=2 / b_adapt=1 / b_bias=0 / direct=3 / weightb=1 / open_gop=0 / weightp=2 / keyint=250 / keyint_min=25 / scenecut=40 / intra_refresh=0 / rc_lookahead=50 / rc=2pass / mbtree=1 / bitrate=11500 / ratetol=1.0 / qcomp=0.60 / qpmin=0 / qpmax=69 / qpstep=4 / cplxblur=20.0 / qblur=0.5 / vbv_maxrate=31250 / vbv_bufsize=31250 / nal_hrd=none / filler=0 / ip_ratio=1.40 / aq=1:1.00
  26. Language                                 : English
  27. Default                                  : Yes
  28. Forced                                   : No

  29. Audio
  30. ID                                       : 2
  31. Format                                   : DTS
  32. Format/Info                              : Digital Theater Systems
  33. Codec ID                                 : A_DTS
  34. Duration                                 : 1 h 54 min
  35. Bit rate mode                            : Constant
  36. Bit rate                                 : 1 509 kb/s
  37. Channel(s)                               : 2 channels
  38. Channel layout                           : L R
  39. Sampling rate                            : 48.0 kHz
  40. Frame rate                               : 93.750 FPS (512 SPF)
  41. Bit depth                                : 16 bits
  42. Compression mode                         : Lossy
  43. Stream size                              : 1.20 GiB (12%)
  44. Title                                    : Uncle.Toms.Cabin.1927.1080p.BluRay.x264.DTS-FGT
  45. Language                                 : English
  46. Default                                  : Yes
  47. Forced                                   : No

  48. Menu
  49. 00:00:00.000                             : en:Chapter 01
  50. 00:17:24.793                             : en:Chapter 02
  51. 00:28:20.281                             : en:Chapter 03
  52. 00:40:11.367                             : en:Chapter 04
  53. 01:02:23.656                             : en:Chapter 05
  54. 01:17:05.245                             : en:Chapter 06
  55. 01:25:24.661                             : en:Chapter 07
  56. 01:40:36.905                             : en:Chapter 08
復制代碼









分享到:  QQ好友和群QQ好友和群
收藏收藏
回復

使用道具 舉報

級別:功成名就 Lv.9

注冊時間
2019-4-24
最后登錄
2020-6-3
聽眾
14
收聽
0
主題
0
藍光幣
541 枚
貢獻
0 點
沙發
發表于 2019-10-12 15:15:32 | 只看該作者
樓主發貼辛苦了,謝謝樓主分享!我覺得中國高清電影網是注冊對了!
回復

使用道具 舉報

 成長值: 1410

級別:尊貴的會員

注冊時間
2020-3-1
最后登錄
2020-6-5
聽眾
3
收聽
0
主題
0
藍光幣
357 枚
貢獻
0 點
板凳
發表于 2020-3-21 00:46:59 | 只看該作者
樓主發貼辛苦了,謝謝樓主分享!我覺得中國高清電影網是注冊對了!
回復

使用道具 舉報

懶得打字嘛,點擊右側快捷回復 【右側內容,后臺自定義】
您需要登錄后才可以回帖 登錄 | 立即注冊

本版積分規則

Archiver|手機版|小黑屋| 中國高清網 ( ICP備17007870號-2 ) |網站地圖 

GMT+8, 2020-6-5 21:18 , Processed in 0.117799 second(s), 37 queries .

Powered by HDchina X3.4

Copyright 2017-2019©HDchina.All right reserved

返回頂部 聯系我們
必赢客时时彩群计划