查看: 167|回復: 3
打印 上一主題 下一主題

[劇情片] 惡人傳 The.Gangster.the.Cop.the.Devil.2019.KOREAN.720p.BluRay.x264.DTS-PbK 5.00GB

[復制鏈接]

 成長值: 4690

級別:資源管理組

注冊時間
2017-10-20
最后登錄
2020-4-1
聽眾
1
收聽
0
主題
94249
藍光幣
125451 枚
貢獻
18614 點
跳轉到指定樓層
樓主
發表于 2019-10-11 12:47:19 | 只看該作者 |只看大圖 回帖獎勵 |倒序瀏覽 |閱讀模式
& e# i7 Y: p1 [7 E% f3 E
, k9 d  k3 Y) B7 i- D
譯  名 惡人傳 / The Gangster, The Cop, The Devil / 惡霸?魔警?殺人狂(港) / 極惡對決(臺)
" x' l; K& v1 ]' t8 k, F3 ]片  名 ???0 Q, J7 u, J6 `. d# L
年  代 20197 e+ q* @% G+ h5 m' T& Z2 x" E
產  地 韓國- f' \6 g) o4 _* [7 T' J" {
類  別 劇情 / 動作 / 犯罪
3 E7 }6 U; ~) i# u# F* {語  言 韓語6 N6 W1 ?* U: j7 q6 v* {
上映日期 2019-05-15(韓國)
% J0 t- _; V, @7 x. H- V4 VIMDb評分  6.9/10 from 1549 users
: @1 a& R- u6 r' \6 H0 x1 ~8 dIMDb鏈接  http://www.imdb.com/title/tt10208198& p+ t3 K3 L) B8 a; O2 X$ {
豆瓣評分 7.7/10 from 122614 users
3 s9 A: x+ x) j3 v. R) v) ^% N豆瓣鏈接 https://movie.douban.com/subject/30211551/& ]% l0 k2 a. B3 U5 o
片  長 109分鐘
: k& I6 y2 Y- h( p* A導  演 李元泰 Won-tae Lee( U3 E5 q8 Z$ a6 m% K& M0 c' X) C
編  劇 李元泰 Won-tae Lee* m1 ]8 u5 s1 `/ J& e% d
主  演 馬東錫 Tong-Seok Ma
+ x0 x  {: N8 d# C       金武烈 Moo-yeol Kim
( O# X( E: ?+ U6 q  U       金成圭 Seong-gyoo Kim! p2 y, d& M* F8 s/ M# W- C
       劉承睦 Yoo Seung-Mok
  P8 X8 a; {! Y& V% x7 ~2 w+ T0 M5 M( e- q       崔民哲 Min-cheol Choi
% K& m: M. s5 a' m       金胤成 Kim Yoon-seong+ W5 `1 f. G7 {5 g
       許棟元 Heo Dong-won' W2 v8 U: F% ?4 `1 |7 O
       吳熙俊 Hee-joon Oh
4 P- m1 S4 o. z8 ?& Y       楊志洙 Ji-soo Yang4 G" q- c' R: r/ h0 F0 F
       金桀 Kim Kyoul, [& @) V7 \1 M! o$ {( {
       李恩泉 Eun-saem Lee
; E" S1 q# l4 t3 ^8 u       劉在明 Jae-myung Yoo3 U; F5 J3 @' K. B( s2 t: l9 U

; V+ h, P9 s' g# ^  b; J( j6 d6 z7 Q4 H. m3 C" N, I
標  簽 韓國 | 犯罪 | 暴力 | 動作 | 警匪 | 人性 | 懸疑 | 2019
8 @7 t" w9 V* T6 j% ?; o) C. R8 N% N
7 @5 |8 p! S( V$ @+ t簡  介  " |" J! ~. O. M+ W2 L% _" F% h
; Q$ `/ ]1 M/ b; ?( D
  罪犯頭目張東洙(Don Lee)被一名神秘莫測的連環殺手暴力襲擊之后幸存,與當地警探鄭泰碩(Kim Moo Yul)形成了一種奇妙的搭檔關系,聯手捕捉被稱為“K”的虐待狂殺手”。
: u- _# N  W  n1 ~6 r9 p+ s
  1. Video, {) c5 f  p  W  Z
  2. ID                                       : 14 c' U; f/ @2 [: |
  3. Format                                   : AVC* Q& i& g& U" n+ E
  4. Format/Info                              : Advanced Video Codec
    6 y  q& g6 z/ m% n
  5. Format profile                           : [email protected]
    " E7 ?6 j' t1 S$ w; {
  6. Format settings                          : CABAC / 12 Ref Frames( H9 ~. N$ k7 W, l4 A: T" x9 y
  7. Format settings, CABAC                   : Yes
    * y3 j6 T5 f# Z; C6 W
  8. Format settings, Reference frames        : 12 frames  G1 Z; M: k. a* R1 J+ @; X/ e8 }
  9. Codec ID                                 : V_MPEG4/ISO/AVC4 t2 T% w- ^3 k: R  ~
  10. Duration                                 : 1 h 49 min
    1 n4 a- W8 {0 w+ J6 P
  11. Bit rate                                 : 5 000 kb/s
    4 E% O: X. a" J$ c2 g* A$ q3 @' C
  12. Width                                    : 1 280 pixels9 P, q' g/ p9 d/ [7 K1 K
  13. Height                                   : 534 pixels
    & B6 Q5 B5 ^/ ^  g/ H" c: O7 Z
  14. Display aspect ratio                     : 2.40:13 U9 s7 y4 G! N. k9 U
  15. Frame rate mode                          : Constant
    ; C) m7 x/ ]$ y* O  X5 _
  16. Frame rate                               : 24.000 FPS9 A5 k! s* G( G* T0 y# G
  17. Color space                              : YUV) R* P3 C) Y  V- U8 I
  18. Chroma subsampling                       : 4:2:0
    9 W5 y- @7 i3 g: y; q
  19. Bit depth                                : 8 bits
    ( g, r( E* u4 c* o+ V! F+ {+ m
  20. Scan type                                : Progressive
    4 r8 J5 ]' H3 s: W
  21. Bits/(Pixel*Frame)                       : 0.305
    7 E/ c- E) y" D  \; L+ F
  22. Stream size                              : 3.84 GiB (77%)
    4 h. m' L/ G: z4 M9 j" g, d
  23. Writing library                          : x264 core 155 r2901 7d0ff22, Z; J5 [- f6 F9 h" m
  24. Encoding settings                        : cabac=1 / ref=12 / deblock=1:-3:-3 / analyse=0x3:0x133 / me=umh / subme=11 / psy=1 / psy_rd=1.00:0.00 / mixed_ref=1 / me_range=32 / chroma_me=1 / trellis=2 / 8x8dct=1 / cqm=0 / deadzone=21,11 / fast_pskip=1 / chroma_qp_offset=-2 / threads=17 / lookahead_threads=2 / sliced_threads=0 / nr=0 / decimate=1 / interlaced=0 / bluray_compat=0 / constrained_intra=0 / bframes=8 / b_pyramid=2 / b_adapt=2 / b_bias=0 / direct=3 / weightb=1 / open_gop=0 / weightp=2 / keyint=240 / keyint_min=24 / scenecut=40 / intra_refresh=0 / rc=2pass / mbtree=0 / bitrate=5000 / ratetol=1.0 / qcomp=0.60 / qpmin=0 / qpmax=69 / qpstep=4 / cplxblur=20.0 / qblur=0.5 / ip_ratio=1.30 / pb_ratio=1.20 / aq=3:0.80+ c8 T/ n  G9 l8 _
  25. Language                                 : Korean
    7 ]+ b# e0 |- M+ U+ V; M- @
  26. Default                                  : Yes
    : N( f6 T3 D7 w, x
  27. Forced                                   : No
    / Y! \8 i3 }- E( L/ B( B+ y9 I# \2 J
  28. Color range                              : Limited
    3 p+ f* X9 U" w% d5 v% }
  29. Color primaries                          : BT.7099 @/ t  K" T! P# B) q! \
  30. Transfer characteristics                 : BT.709
    8 M$ T& E/ I: `6 B
  31. Matrix coefficients                      : BT.709
    % H& Y8 y& o! X: s4 |+ z+ l4 ]$ X* X

  32. ) G) T+ K( i- `% {
  33. Audio# h3 ~. ?, X5 K0 ~" k# m! e& K
  34. ID                                       : 2( s; g# U2 n; P7 ]; ~
  35. Format                                   : DTS
    & ?. V/ e5 z+ M* R5 D% i& [
  36. Format/Info                              : Digital Theater Systems( ?$ M9 E% ^4 p9 Z
  37. Codec ID                                 : A_DTS
    $ c7 {! `6 K% X6 y# ]5 |% Q
  38. Duration                                 : 1 h 49 min* n3 M# l% R* T& C+ v3 X& c! v' A
  39. Bit rate mode                            : Constant; [* o8 o, e# G3 G# w$ ^& B$ x
  40. Bit rate                                 : 1 509 kb/s
    ' ?2 g. a2 n0 \7 F7 x9 R7 {
  41. Channel(s)                               : 6 channels/ \1 H/ e$ u5 m. H  M; X
  42. Channel layout                           : C L R Ls Rs LFE2 c: M9 C2 P. O
  43. Sampling rate                            : 48.0 kHz4 y8 g( D; M1 `9 x' j3 t
  44. Frame rate                               : 93.750 FPS (512 SPF), x! T" D- O  q, ]) Y4 g9 K
  45. Bit depth                                : 16 bits
    : h- M) C. b0 z9 v* _
  46. Compression mode                         : Lossy
    9 l6 V2 e+ K1 f( W
  47. Stream size                              : 1.16 GiB (23%)
      s% G$ @8 s: O# k
  48. Language                                 : Korean$ h$ w' C4 k' t6 P/ P0 N! H  a
  49. Default                                  : Yes# `: K+ U* V5 p, _
  50. Forced                                   : No- _6 s* U/ _" W0 U- E+ h$ p
  51. , s* e0 k$ s' ~  b/ A$ p; s# B5 t) I
  52. Text
    ! [- M% D. `8 S) W7 i
  53. ID                                       : 39 M6 T: U: o. K) Q4 Z6 O
  54. Format                                   : UTF-8
    . d6 F0 |- g/ h
  55. Codec ID                                 : S_TEXT/UTF8) {3 Y" l* F' s1 |) L# `
  56. Codec ID/Info                            : UTF-8 Plain Text
    ; D# Y* |9 _0 A
  57. Duration                                 : 1 h 44 min0 u& w) d0 o% s% u$ V) N' Z; c
  58. Bit rate                                 : 52 b/s3 i3 P" P4 H7 x7 m$ H
  59. Count of elements                        : 13238 a$ n# x) A% N0 [: ]$ D. u
  60. Stream size                              : 40.4 KiB (0%)
    ; S3 _& v& G5 I8 a
  61. Language                                 : English
    9 _7 j: R4 ~: U- G) l: a
  62. Default                                  : No
    8 @9 b- }2 g7 E; x0 h8 D. E
  63. Forced                                   : No
復制代碼

1 I7 k% N+ X/ Y; W- V
) o$ q% R+ u% b) l" {+ |
1 W, r* n( c2 z8 p; F# ~2 e1 k' y0 F( L' e% ^" F# z

& k" n! x- V" a' |3 k( `! a+ z* Z& f7 @! Y* m% j- T* ~

- H- K* T+ \+ a: I8 ^1 i. q8 Z# {& y, C& t. o* q

% A4 v+ F1 J- D, s
分享到:  QQ好友和群QQ好友和群
收藏收藏
回復

使用道具 舉報

級別:初級觀眾 Lv.1

注冊時間
2019-10-11
最后登錄
2019-10-11
聽眾
1
收聽
0
主題
0
藍光幣
1 枚
貢獻
0 點
QQ
沙發
發表于 2019-10-11 14:03:19 | 只看該作者

0 B8 [) S$ y0 y) |. g樓主太厲害了!樓主,電影應該很好看我覺得中國高清電影網真是個好地方!
回復

使用道具 舉報

級別:一線明星 Lv.8

注冊時間
2019-4-24
最后登錄
2020-4-1
聽眾
14
收聽
0
主題
0
藍光幣
426 枚
貢獻
0 點
板凳
發表于 2019-10-11 16:02:31 | 只看該作者
樓主發貼辛苦了,謝謝樓主分享!我覺得中國高清電影網是注冊對了!
回復

使用道具 舉報

級別:領銜主演 Lv.6

注冊時間
2018-2-26
最后登錄
2020-3-30
聽眾
16
收聽
0
主題
0
藍光幣
247 枚
貢獻
0 點
地板
發表于 2019-10-12 09:21:55 | 只看該作者

% T+ e& h: J8 ?3 x+ J# J$ `這東西我收了!謝謝樓主!中國高清電影網真好!
回復

使用道具 舉報

懶得打字嘛,點擊右側快捷回復 【右側內容,后臺自定義】
您需要登錄后才可以回帖 登錄 | 立即注冊

本版積分規則

Archiver|手機版|小黑屋| 中國高清網 ( ICP備17007870號-2 ) |網站地圖 

GMT+8, 2020-4-2 11:32 , Processed in 0.139306 second(s), 38 queries .

Powered by HDchina X3.4

Copyright 2017-2019©HDchina.All right reserved

返回頂部 聯系我們
必赢客时时彩群计划