查看: 9|回復: 2
打印 上一主題 下一主題

[恐怖片] 腥樂園 The.Hexecutioners.2015.720p.BluRay.x264-GETiT 3.28GB

[復制鏈接]

 成長值: 2780

級別:資源管理組

注冊時間
2017-10-20
最后登錄
2019-10-11
聽眾
1
收聽
0
主題
84382
藍光幣
54193 枚
貢獻
8739 點
跳轉到指定樓層
樓主
: ]" c3 ^5 S, G% E

. R6 d% j. T6 _0 Z# f1 T; O1 l+ I譯  名 腥樂園! F6 V, v5 E) l$ r9 K
片  名 The Hexecutioners
1 z6 J: I7 Y) x( [( E$ t: U年  代 2015
3 P9 {; ~/ R7 F/ G% r+ u產  地 (Canada)
/ ]- n( `% S( z, C- N1 f類  別 恐怖
2 t5 V  g% q+ s' c% v語  言 英語4 W$ w$ ^* R% C- Y
IMDb評分  4.1/10 from 441 users
% q$ R0 t% m$ U1 b: O. aIMDb鏈接  http://www.imdb.com/title/tt50808049 K2 C* L! x: G$ f: ]6 J% Z0 j
豆瓣評分 0/10 from 0 users
' d1 w. Q& D) a' j* X' C豆瓣鏈接 https://movie.douban.com/subject/26808826/
! e6 [+ B% A3 v5 L導  演 Jesse Thomas Cook
0 d5 s. T! M& ~! T/ S編  劇 Tony Burgess) o: o6 o( c$ X& }2 n6 q2 p- o- P
主  演 Liv Collins, Sarah Power, Timothy Burd" _) t+ ?' W8 B( \
$ `  _; N/ ^  ?7 ^" `1 T

: Z3 j) \' l5 [/ r$ W9 n5 H; S標  簽 驚悚 | 恐怖 | 美國 | 其他地區 | 2015
2 d. T+ V/ Y6 s. o  `" s5 J! R: u/ ^. ]. A
簡  介  & x( J2 w' l1 C; d, T: D) b- J: s
7 j7 n3 ^# N$ o+ h
  Two disparate young women working for a company that conducts euthanasia are dispatched to a remote estate to perform a custom assisted-suicide ritual, but unwittingly summon the wraiths of a Death Cult that once inhabited the property.
2 t! A( g; t, f2 v3 S' r2 W0 w
  1. Video4 B! W: I! V: i+ y% O
  2. ID                                       : 1
    9 A( G$ X6 d  G+ F* ^
  3. Format                                   : AVC
    ; R7 p! Z3 U: q6 Y( Q
  4. Format/Info                              : Advanced Video Codec
    ) A/ W1 W* E% A
  5. Format profile                           : [email protected]
    & g, ^4 @' q* l: G* s, s5 w- h9 t
  6. Format settings                          : CABAC / 5 Ref Frames+ d8 h) G: A* @& s
  7. Format settings, CABAC                   : Yes* Z" Y: [6 S2 ?  J( Q8 E2 q
  8. Format settings, Reference frames        : 5 frames
    ) o- h# I1 }0 N6 F: N
  9. Codec ID                                 : V_MPEG4/ISO/AVC; L2 u4 r; u3 j
  10. Duration                                 : 1 h 37 min
    , e' l( o* w- q8 }" y
  11. Bit rate                                 : 4 054 kb/s% ^$ a: {6 s+ S6 k9 \
  12. Width                                    : 1 280 pixels
    6 Y! ?$ c" v  c# a: q& Z
  13. Height                                   : 536 pixels
    ( F. o# [6 {: ^3 k; j
  14. Display aspect ratio                     : 2.40:1
    7 W& L5 M5 E- C; [0 V) f$ }) b0 P
  15. Frame rate mode                          : Constant: @  y; v1 Z1 b7 E2 c
  16. Frame rate                               : 23.976 (24000/1001) FPS. R4 i3 o. a) c5 P
  17. Color space                              : YUV
    & P& ?1 n/ I8 U7 M- G. E
  18. Chroma subsampling                       : 4:2:0
      n, V  V; N/ D; \
  19. Bit depth                                : 8 bits
    5 h) Q# ?4 [/ H7 d  |4 v# |
  20. Scan type                                : Progressive2 O/ [+ }! Y/ T+ N6 X' \( f8 v
  21. Bits/(Pixel*Frame)                       : 0.246$ W- @5 V4 Z; v! h1 ~/ e& {, G
  22. Stream size                              : 2.75 GiB (84%)2 i. q: G7 r2 n/ \7 G
  23. Writing library                          : x264 core 157 r2969 d4099dd' H0 r. O5 v  q9 n
  24. Encoding settings                        : cabac=1 / ref=5 / deblock=1:0:0 / analyse=0x3:0x133 / me=umh / subme=7 / psy=1 / psy_rd=1.00:0.00 / mixed_ref=1 / me_range=16 / chroma_me=1 / trellis=2 / 8x8dct=1 / cqm=0 / deadzone=21,11 / fast_pskip=0 / chroma_qp_offset=-2 / threads=16 / lookahead_threads=2 / sliced_threads=0 / nr=0 / decimate=1 / interlaced=0 / bluray_compat=0 / constrained_intra=0 / bframes=3 / b_pyramid=2 / b_adapt=1 / b_bias=0 / direct=3 / weightb=1 / open_gop=0 / weightp=2 / keyint=250 / keyint_min=23 / scenecut=40 / intra_refresh=0 / rc_lookahead=50 / rc=2pass / mbtree=1 / bitrate=4054 / ratetol=1.0 / qcomp=0.60 / qpmin=0 / qpmax=69 / qpstep=4 / cplxblur=20.0 / qblur=0.5 / ip_ratio=1.40 / aq=1:1.00: i/ r" L# Y) S
  25. Language                                 : English6 b! V! n- O9 \, p* p/ N5 Y
  26. Default                                  : Yes- Q' X' x5 B, B
  27. Forced                                   : No& b, }0 H7 r6 Y1 R

  28. 4 g% V  z( J0 l: U* _9 L9 K3 U
  29. Audio* f) F6 d7 ~9 S7 [, R- E
  30. ID                                       : 2" ?' d# I. p7 g1 g# z
  31. Format                                   : DTS5 j  F6 L4 W2 m9 t3 b
  32. Format/Info                              : Digital Theater Systems+ _2 ^. O/ U: `0 [2 v
  33. Codec ID                                 : A_DTS, q  J2 V  ?( A: R9 n$ O
  34. Duration                                 : 1 h 37 min" `3 ^) R  n' J3 e0 N' Q
  35. Bit rate mode                            : Constant( R/ m9 Q+ y; l( a7 C" Z
  36. Bit rate                                 : 768 kb/s
    3 s6 K. \& [3 e7 C& E; q& P
  37. Channel(s)                               : 6 channels0 O$ m& l( {! F# ^
  38. Channel layout                           : C L R Ls Rs LFE2 L/ K1 V. F' v1 {
  39. Sampling rate                            : 48.0 kHz3 T! T2 m) H6 |5 W
  40. Frame rate                               : 93.750 FPS (512 SPF)
    ' A: c7 K2 {1 [
  41. Bit depth                                : 24 bits
    1 o, O; }* d4 J  ~
  42. Compression mode                         : Lossy) R$ I# j& D( E, K) ~
  43. Stream size                              : 534 MiB (16%)
    . f5 t0 |* h. g9 a
  44. Title                                    : dts. V6 @5 n9 |" C  h5 w$ E
  45. Language                                 : English, _" @" l6 T! r2 o' M: p7 ]2 e: b8 G
  46. Default                                  : Yes0 C4 |) D0 m' f% X( A8 _* m& d6 [2 R8 t  w
  47. Forced                                   : No; [& N4 O' _" w7 E0 C9 _2 ^* K

  48. 4 d+ u# {% ?) w9 g6 u) K8 w: h% @  i8 r
  49. Menu# i4 I/ r+ D9 A- {
  50. 00:00:00.000                             : en:00:00:00.000
    8 K  s, ]& h) \  W
  51. 00:05:22.489                             : en:00:05:22.489
    & N' D8 P/ d' A8 o! ^* ^
  52. 00:13:16.713                             : en:00:13:16.7132 q3 b( P; n% `4 G3 k
  53. 00:22:37.773                             : en:00:22:37.773
    & `- g- [) ], Y. d# y1 C% F
  54. 00:28:51.980                             : en:00:28:51.980# c9 u, m8 ?4 L) h
  55. 00:36:19.511                             : en:00:36:19.511
    ! u8 I4 e* O  l
  56. 00:48:47.675                             : en:00:48:47.675
    , s" Z% f& M* j; d
  57. 00:59:55.967                             : en:00:59:55.967
    1 u8 o# Z$ O2 Q: [" y  C
  58. 01:09:48.351                             : en:01:09:48.351" b1 u  [; Q" Q6 F; N$ Q0 U
  59. 01:19:06.158                             : en:01:19:06.1586 W! r5 M! ?) H8 l  ~% s- T
  60. 01:25:30.792                             : en:01:25:30.792
    % [& M* S% z/ A3 O, n
  61. 01:34:04.389                             : en:01:34:04.389
復制代碼

* z# Z& J2 p) _& z
: ^$ g. W* x! o9 O) R3 e) X2 L6 K+ V2 ]3 b9 ?* v

& Q3 O; P! v3 [6 f$ r/ U  r, `9 @1 U2 s

+ n! ^5 V8 k8 I) h3 a, w  M9 U: G1 a
$ \$ e% ]2 ^/ l, L: Y+ a9 `
分享到:  QQ好友和群QQ好友和群
收藏收藏
VIP會員免費任意下載本站所有資源!---點擊開通
回復

使用道具 舉報

級別:專業龍套 Lv.4

注冊時間
2019-4-11
最后登錄
2019-10-11
聽眾
12
收聽
0
主題
0
藍光幣
149 枚
貢獻
0 點
沙發
發表于 1 小時前 | 只看該作者
$ x* ?# {6 X8 b. C2 Y: S
我看不錯噢 謝謝樓主!中國高清電影網越來越好!
VIP會員免費任意下載本站所有資源!---點擊開通
回復

使用道具 舉報

級別:領銜主演 Lv.6

注冊時間
2019-4-24
最后登錄
2019-10-11
聽眾
13
收聽
0
主題
0
藍光幣
136 枚
貢獻
0 點
板凳
發表于 半小時前 | 只看該作者
樓主發貼辛苦了,謝謝樓主分享!我覺得中國高清電影網是注冊對了!
VIP會員免費任意下載本站所有資源!---點擊開通
回復

使用道具 舉報

懶得打字嘛,點擊右側快捷回復 【右側內容,后臺自定義】
您需要登錄后才可以回帖 登錄 | 立即注冊

本版積分規則

QQ|Archiver|手機版|小黑屋| 中國高清網 |網站地圖

GMT+8, 2019-10-11 17:00 , Processed in 0.757963 second(s), 38 queries .

Powered by HDchina X3.4

Copyright 2017-2019©HDchina.All right reserved

返回頂部 聯系我們
必赢客时时彩群计划