查看: 14|回復: 1
打印 上一主題 下一主題

[劇情片] 煤工歌手岡德曼 Gundermann.2018.720p.BluRay.x264-JustWatch 5.47GB

[復制鏈接]

 成長值: 2780

級別:資源管理組

注冊時間
2017-10-20
最后登錄
2019-10-11
聽眾
1
收聽
0
主題
84385
藍光幣
54193 枚
貢獻
8742 點
跳轉到指定樓層
樓主
發表于 昨天 22:31 | 只看該作者 |只看大圖 回帖獎勵 |倒序瀏覽 |閱讀模式

  F9 H4 G* U' T- f9 ]. \7 Y6 u$ Y+ _6 s) z# b: D8 r( Z$ C0 u
譯  名 煤工歌手岡德曼% f. A* u- ]! t: _- f# n4 b3 v
片  名 Gundermann
$ b( B2 L4 K5 w! E% H4 T年  代 2018
( N# l7 f6 G3 {$ B產  地 德國
3 N( l- P2 T! D類  別 劇情 / 音樂 / 傳記, n6 _/ i. x0 N  R5 y
語  言 德語
8 T. i4 \7 F, _( v' S) `上映日期 2018-08-23(德國)
0 b& u7 }5 |1 K% W- X, Z, U( \% yIMDb評分  7.5/10 from 971 users
8 [2 |) S; ?6 _5 ZIMDb鏈接  http://www.imdb.com/title/tt7205942$ G- S0 a, m. `% d: P
豆瓣評分 7.0/10 from 150 users1 ^+ S: o; I. o2 @" H% Y3 @' y
豆瓣鏈接 https://movie.douban.com/subject/30301444/& n) u# S$ v# Q, ?6 U
片  長 128分鐘! x# y/ i' |0 ]& O" ~  f: W
導  演 安德里亞斯·德里森 Andreas Dresen
  E+ i7 n1 D' c9 j編  劇 萊拉·斯蒂勒 Laila Stieler2 O* g. Y  }& W' x0 S% C3 \
主  演 彼得·施耐德 Peter Schneider
1 [& U8 N0 [% K       比亞內·梅德爾 Bjarne M?del
( Q0 O" F0 j4 B) ]. E2 q% I       亞歷山大·謝爾 Alexander Scheer: ?- w8 g2 u% k, x
       米蘭·佩舍爾 Milan Peschel
6 h, c, J: f( x. o+ G       希爾瑪·艾奇霍恩 Hilmar Eichhorn3 C) C% K" `' Q: u! s7 z) S" h
       安娜·烏特伯格 Anna Unterberger
2 i' u; E: h3 b& [* l' \       索斯藤·默滕 Thorsten Merten
0 V2 K+ r0 u8 _8 t) l       阿克西爾·普拉爾 Axel Prahl2 t( K7 X" R; }4 _% F* Q
       克里斯蒂安·斯基賓斯基 Christian Skibinski, C4 ?1 y! T- a( J  Z4 v2 E
* F" L9 R+ m6 i# v  Q

! u2 r5 J- Q! a! `' ]標  簽 德國 | 傳記 | 音樂 | 2018 | 歷史 | 電影 | 真實事件改編 | 劇情
; }/ ^& {2 L& A- c! U# D( r" _- |( B( T
簡  介  
  \4 I) n6 `' I3 v3 _9 D. M% b' ^1 Q# E/ J# }7 T- O0 V
  該片是關于前東德歌手格哈德?岡德曼動蕩生平的傳記電影。岡德曼白天在露天煤礦駕駛著挖土車,但晚上卻作為歌手登上舞臺,以自己創作的音樂感染他人。他以生活和生死為題材,卻也涉及政治和社會批判主題。憑借其頗具個人化和真實感、既憂郁又富有詩意的作品,他成為八十年代東德地區的大眾偶像,但也時常遭遇同上級的沖突。甚至在兩德統一后,岡德曼的受歡迎程度亦絲毫不減。然而,1995年時,岡德曼作為間諜與東德國家安全局合作的往事被公開,盡管這似乎并未影響到他的音樂事業,卻令他陷入了漫長的個人斗爭。該片獲2019年德國電影獎包括最佳影片、導演和男主角在內等六項大獎和三項提名。(小易甫字幕組)
) _! X$ @! d7 o4 g5 S1 f
: Q9 m4 W5 t2 p# [4 v6 [獲獎情況  
- ]+ x& C! G) x& E/ C
2 e- Y, X1 z2 m( b4 d8 l  第32屆歐洲電影獎(2019): J3 n( F* ]0 x5 @7 m$ Q" y6 [
  最佳影片(提名)
/ }1 T- T5 a/ K% c; N  最佳喜劇片(提名)$ ]. b& ^; V4 B" N
  最佳編劇(提名) 萊拉·斯蒂勒
$ s. Y+ B- [: [$ s1 q  最佳服裝設計(提名)7 \9 N& d$ q$ s( n! }5 g, J; Z
  最佳妝發(提名)
& {! I3 ]' e$ X/ Y/ K
  1. Video
    - m4 j; X0 x( G9 V7 c3 p5 ]# c) ?
  2. ID                                       : 1& v6 @" |0 h) C  |. v' a7 s
  3. Format                                   : AVC
    4 l/ C4 [- ^7 z& `+ M
  4. Format/Info                              : Advanced Video Codec7 Z' [- h# m- _" S
  5. Format profile                           : [email protected]% w: H, X+ n! a
  6. Format settings                          : CABAC / 5 Ref Frames6 O( |( q8 N' Q* j
  7. Format settings, CABAC                   : Yes
    1 P& x/ {' J- r+ B& ?$ Q2 @6 {" z
  8. Format settings, Reference frames        : 5 frames9 k5 r- ~" E! C- Q9 l9 U$ o3 t' [
  9. Codec ID                                 : V_MPEG4/ISO/AVC
    ) ]* [# a2 k- I' ]6 W
  10. Duration                                 : 2 h 7 min
    2 I5 w6 a+ h8 s) h/ v9 N2 O
  11. Bit rate                                 : 5 367 kb/s
    ; a3 c6 E+ Z9 U( @* S
  12. Width                                    : 1 280 pixels
    : Z8 \4 G$ S: W  m
  13. Height                                   : 536 pixels
    - M+ W4 m+ \7 s! H9 `9 W% _4 y  I
  14. Display aspect ratio                     : 2.40:1
    1 o6 x9 c% H& U0 ~2 P
  15. Frame rate mode                          : Constant
    $ a6 v4 ]5 J6 E: Q! W
  16. Frame rate                               : 24.000 FPS
    1 c) M0 S4 O" o8 c/ n! M
  17. Color space                              : YUV
    ; y; s/ R* @8 S' b
  18. Chroma subsampling                       : 4:2:0
    2 F4 X  i: @: E' b
  19. Bit depth                                : 8 bits' C# G1 A# ]  G, }; \# b; B8 j
  20. Scan type                                : Progressive& p2 ^4 P! F! @/ T( M% i
  21. Bits/(Pixel*Frame)                       : 0.326$ w* A$ B& [8 F: c
  22. Stream size                              : 4.78 GiB (87%)( m# {$ |5 p6 F3 o' o* B8 s& a9 a
  23. Writing library                          : x264 core 157 r2969 d4099dd
    6 g0 |; N* Z, p
  24. Encoding settings                        : cabac=1 / ref=5 / deblock=1:-2:-2 / analyse=0x3:0x113 / me=umh / subme=8 / psy=1 / psy_rd=1.00:0.00 / mixed_ref=1 / me_range=16 / chroma_me=1 / trellis=2 / 8x8dct=1 / cqm=0 / deadzone=21,11 / fast_pskip=0 / chroma_qp_offset=-2 / threads=17 / lookahead_threads=2 / sliced_threads=0 / nr=0 / decimate=1 / interlaced=0 / bluray_compat=0 / constrained_intra=0 / bframes=3 / b_pyramid=2 / b_adapt=2 / b_bias=0 / direct=3 / weightb=1 / open_gop=0 / weightp=2 / keyint=240 / keyint_min=24 / scenecut=40 / intra_refresh=0 / rc_lookahead=50 / rc=2pass / mbtree=1 / bitrate=5367 / ratetol=1.0 / qcomp=0.60 / qpmin=0 / qpmax=69 / qpstep=4 / cplxblur=20.0 / qblur=0.5 / ip_ratio=1.40 / aq=1:1.00
    ( f$ ~* M; o3 I% d0 t
  25. Language                                 : English
    3 c; V. B  |, ]% u7 Q
  26. Default                                  : Yes$ P1 |& B' w" `
  27. Forced                                   : No, p, x3 N* o. l/ a5 |7 q0 o% ]# K" E

  28. ! Y  x4 j, X# q& M/ A/ \0 k: x
  29. Audio
    + s5 }9 \! c- W- y
  30. ID                                       : 2) y, N! q. o; S; ]% _  F# @
  31. Format                                   : DTS0 N7 c7 r  y1 ?) }$ ?
  32. Format/Info                              : Digital Theater Systems* i. x/ K, r; B! \
  33. Codec ID                                 : A_DTS
    - s: W. u, j7 T5 @, `+ R9 c! u
  34. Duration                                 : 2 h 7 min/ _$ u) J: c& \% t; r) b% ]
  35. Bit rate mode                            : Constant9 Y" I% H* q' T2 X- |5 q; a
  36. Bit rate                                 : 768 kb/s7 U: `0 Z7 }  p" _
  37. Channel(s)                               : 6 channels
    4 K  \3 Z, B* o2 O1 ?7 Q9 o' h
  38. Channel layout                           : C L R Ls Rs LFE9 m) o- L- h* ^, a. Z
  39. Sampling rate                            : 48.0 kHz+ ?3 a+ T5 [! j$ O$ }
  40. Frame rate                               : 93.750 FPS (512 SPF)4 |: I' f. T2 O: D$ k
  41. Bit depth                                : 24 bits
    & |+ C/ @; ?5 P$ t  G  ?
  42. Compression mode                         : Lossy
    5 r$ k0 z- o7 W8 \2 E
  43. Stream size                              : 700 MiB (13%); }0 w) u6 `/ m
  44. Language                                 : German
    " Q7 |, A/ [/ J* k7 K
  45. Default                                  : Yes9 E7 y( N  w( Q: X& O1 M
  46. Forced                                   : No
    6 k/ c2 Z6 w( L  ?

  47. 7 k2 _, s3 Y$ o) F9 _7 k4 n
  48. Text
    3 p5 u9 A/ P5 z" W2 x: x
  49. ID                                       : 3
    3 c" n3 l/ n, r) b9 X) V0 U
  50. Format                                   : UTF-8' Y& X. s: W( _" x7 Z  W4 |% f& }
  51. Codec ID                                 : S_TEXT/UTF8" `9 [; ^2 }! ?+ D. r$ d& _
  52. Codec ID/Info                            : UTF-8 Plain Text. A% I% p3 \2 ~
  53. Duration                                 : 2 h 6 min
      i/ g: d" X! E% z' f) G" p
  54. Bit rate                                 : 51 b/s1 s- r# R0 t. ?2 j( D
  55. Count of elements                        : 1383
    : S+ Q) i# \, q# ]. R& U
  56. Stream size                              : 48.1 KiB (0%)) O1 G! v4 e5 H# t9 h! X
  57. Language                                 : English; q- c# f0 a! H3 G* S5 z" S
  58. Default                                  : Yes) s  H  [# Q1 a8 l8 x; I4 k5 }0 f
  59. Forced                                   : No2 U) O" `3 e+ w" F$ v

  60. 7 S0 U; P6 u. @8 o3 }* i
  61. Menu
    - x) v1 M) Z9 b7 m1 C
  62. 00:00:00.000                             : :Kapitel 01
    . y: p0 Z% y) K1 b- _% p
  63. 00:08:33.583                             : :Kapitel 020 S1 |/ g* w& z" x
  64. 00:14:12.083                             : :Kapitel 03& Y1 u. S& c" {! i; P: n3 q8 w  M
  65. 00:20:12.875                             : :Kapitel 04: |! }! |! O- s3 q8 `9 J# N( P
  66. 00:27:48.458                             : :Kapitel 05+ [) o# U' m8 P5 W
  67. 00:35:30.792                             : :Kapitel 06
    # K) ?3 q8 Y4 R8 x- A4 K( r
  68. 00:43:52.875                             : :Kapitel 07
    # u7 }- p$ g: t# h' y
  69. 00:52:16.292                             : :Kapitel 085 A+ M% {* ?  G  P4 e) ~
  70. 01:00:34.208                             : :Kapitel 09& [$ V2 t; U  T; s" ]6 m9 K
  71. 01:07:10.500                             : :Kapitel 10( H+ E) m1 D1 W7 a5 e' x  J
  72. 01:18:34.083                             : :Kapitel 11" G( _2 ?( d' d9 g& T
  73. 01:23:20.625                             : :Kapitel 127 w) ~: p6 s% v! i
  74. 01:32:41.625                             : :Kapitel 133 c3 S; A5 j/ L3 g2 U5 V- B2 H' s8 X
  75. 01:39:40.083                             : :Kapitel 14
    5 a, w, w+ a; z  a6 X+ b0 z
  76. 01:50:15.250                             : :Kapitel 15
    & q, [) t0 P" }1 k( J: l8 Z' [0 G
  77. 02:03:28.125                             : :Kapitel 16
復制代碼
, r8 ~+ z0 E  t

$ I8 C% A! M5 H$ d4 H( J' D5 u3 G5 v2 h2 e' A
' m6 W3 Y+ @5 M# k/ D+ u: D

) I. A9 p9 N: A! J" q& K0 b% r
5 h6 u7 f/ R" f# h2 n; f4 M/ Y
0 \5 f* b' k1 g9 \! V. C, e4 `2 h
! L* Z2 s9 O  [* v$ _, G, M' h/ S; I5 j* e) P. s: s
分享到:  QQ好友和群QQ好友和群
收藏收藏
VIP會員免費任意下載本站所有資源!---點擊開通
回復

使用道具 舉報

級別:領銜主演 Lv.6

注冊時間
2019-4-24
最后登錄
2019-10-11
聽眾
13
收聽
0
主題
0
藍光幣
136 枚
貢獻
0 點
沙發
發表于 1 小時前 | 只看該作者
樓主發貼辛苦了,謝謝樓主分享!我覺得中國高清電影網是注冊對了!
VIP會員免費任意下載本站所有資源!---點擊開通
回復

使用道具 舉報

懶得打字嘛,點擊右側快捷回復 【右側內容,后臺自定義】
您需要登錄后才可以回帖 登錄 | 立即注冊

本版積分規則

QQ|Archiver|手機版|小黑屋| 中國高清網 |網站地圖

GMT+8, 2019-10-11 17:06 , Processed in 1.110409 second(s), 38 queries .

Powered by HDchina X3.4

Copyright 2017-2019©HDchina.All right reserved

返回頂部 聯系我們
必赢客时时彩群计划