查看: 10|回復: 1
打印 上一主題 下一主題

[劇情片] 駿馬奧斯溫4/駿馬“如風”:阿里的到來 Windstorm.4.2019.720p.BluRay.x264-JustWatch 5.46GB

[復制鏈接]

 成長值: 2780

級別:資源管理組

注冊時間
2017-10-20
最后登錄
2019-10-11
聽眾
1
收聽
0
主題
84382
藍光幣
54193 枚
貢獻
8739 點
跳轉到指定樓層
樓主
發表于 昨天 22:29 | 只看該作者 |只看大圖 回帖獎勵 |倒序瀏覽 |閱讀模式

/ ^8 C# p  N& k1 G3 s  Z1 g/ {
$ x; t: X& l+ J$ E+ h譯  名 駿馬奧斯溫4 / 駿馬“如風”:阿里的到來& H, c. M0 Q- b0 I
片  名 Ostwind - Aris Ankunft( y4 S8 x) l5 W. c6 a
年  代 2019
% M2 [) r2 k# ?$ Q9 F: V1 u產  地 德國
& I- z: _+ e/ W4 u語  言 德語
2 U" {) _6 Q# z* V5 m7 ]+ G: iIMDb評分  5.5/10 from 55 users
" Z' ], @/ d) kIMDb鏈接  http://www.imdb.com/title/tt9182284: A) ?" D: g: M( m8 H  L
豆瓣評分 0/10 from 0 users
0 q- y0 g) a) ]) ]4 P豆瓣鏈接 https://movie.douban.com/subject/30368940/- E* i: v6 Z4 E, }  |. G7 n
導  演 Theresa von Eltz
" z6 l2 ]5 k  e" v3 r9 {% J) S編  劇 Lea Schmidbauer
9 _1 w) m0 @( m) j4 w; ^% V: T9 T1 V& [; H, ^4 F, p
標  簽 奧斯溫 | 家庭
4 Q2 c% e( G$ k8 A: i; u+ f2 D3 w0 F1 {  s5 n9 V7 v9 [& y1 ^' o5 u0 v" ]/ V
簡  介  
  b4 t* G+ }8 o$ W; I% O' I& N; b6 D3 q" P6 w) n. X7 Y6 {0 _
  暫無相關劇情介紹
- s. ?" M7 F% @
  1. Video
    6 Q( P1 J5 ^" f- ?, h* n; j: L8 c
  2. ID                                       : 1
    , I/ y7 l% {/ @. Y( }
  3. Format                                   : AVC
    : F7 P! h0 S# X5 f" V& V  r/ R" N* A
  4. Format/Info                              : Advanced Video Codec
    : Q- A) q. e( h1 @: G
  5. Format profile                           : [email protected]8 h8 u  P; K6 p9 A/ Z, W
  6. Format settings                          : CABAC / 5 Ref Frames
    8 N$ E: D2 d- t& L: ?" }
  7. Format settings, CABAC                   : Yes0 I6 c' n% ?( u3 S6 I
  8. Format settings, Reference frames        : 5 frames3 j1 j/ I7 C. n1 G
  9. Codec ID                                 : V_MPEG4/ISO/AVC8 S: Y5 e: y4 x5 Z2 V1 d  B$ k4 t
  10. Duration                                 : 1 h 46 min0 I* M3 g. l0 \" s/ G0 t
  11. Bit rate                                 : 5 857 kb/s
    . x8 q3 x+ }: @0 V) Y* h
  12. Width                                    : 1 280 pixels
    $ z6 k8 h! }2 F
  13. Height                                   : 536 pixels( i* o5 x" D& t: Y5 b. i0 {( c- |
  14. Display aspect ratio                     : 2.40:1
    0 |; U1 D+ n. X
  15. Frame rate mode                          : Constant
    + Z6 c- \: X7 H( g: ]# R+ }
  16. Frame rate                               : 24.000 FPS* L7 o' [+ V4 l4 e
  17. Color space                              : YUV
    ; x( H  r3 f* V6 T! _* x
  18. Chroma subsampling                       : 4:2:0& z: q& f1 `% e9 p
  19. Bit depth                                : 8 bits6 a7 r7 M! ~5 g& J5 N5 w2 X; ^
  20. Scan type                                : Progressive6 }4 f4 L( q, @2 y
  21. Bits/(Pixel*Frame)                       : 0.356
      f, V+ f$ S, E% |- w& k9 a# `* R
  22. Stream size                              : 4.34 GiB (79%)
    3 O# @! |7 u: s$ k# O
  23. Writing library                          : x264 core 157 r2969 d4099dd9 E. P, u: ~3 f
  24. Encoding settings                        : cabac=1 / ref=5 / deblock=1:-2:-2 / analyse=0x3:0x113 / me=umh / subme=8 / psy=1 / psy_rd=1.00:0.00 / mixed_ref=1 / me_range=16 / chroma_me=1 / trellis=2 / 8x8dct=1 / cqm=0 / deadzone=21,11 / fast_pskip=0 / chroma_qp_offset=-2 / threads=17 / lookahead_threads=2 / sliced_threads=0 / nr=0 / decimate=1 / interlaced=0 / bluray_compat=0 / constrained_intra=0 / bframes=3 / b_pyramid=2 / b_adapt=2 / b_bias=0 / direct=3 / weightb=1 / open_gop=0 / weightp=2 / keyint=240 / keyint_min=24 / scenecut=40 / intra_refresh=0 / rc_lookahead=50 / rc=2pass / mbtree=1 / bitrate=5857 / ratetol=1.0 / qcomp=0.60 / qpmin=0 / qpmax=69 / qpstep=4 / cplxblur=20.0 / qblur=0.5 / ip_ratio=1.40 / aq=1:1.00) w5 g; C* `1 W0 N  _4 W( V% g
  25. Language                                 : English
    9 P& v% J+ y2 v$ `" |0 Y6 i: I2 y
  26. Default                                  : Yes
    1 Q1 p& N3 {/ A0 S6 i
  27. Forced                                   : No, Z! {5 I$ p' N, {, B

  28. " v7 h5 x& F7 ^- G+ a
  29. Audio: q# j2 c+ p5 \. U) a1 I6 W
  30. ID                                       : 2
    0 ^9 W4 ?. F1 Q
  31. Format                                   : DTS
    9 b" `7 z( e4 Q2 K: H
  32. Format/Info                              : Digital Theater Systems
    8 E! }3 {1 p& W9 N1 \( n
  33. Codec ID                                 : A_DTS( l$ M0 g  Q5 r' h
  34. Duration                                 : 1 h 46 min
    4 x8 t. @7 f  g6 |
  35. Bit rate mode                            : Constant# J$ A* b3 \" {& V5 h7 C
  36. Bit rate                                 : 1 509 kb/s4 ^: ?; A" [& G+ L- {
  37. Channel(s)                               : 6 channels
    / D6 ]8 A2 l1 }' |
  38. Channel layout                           : C L R Ls Rs LFE" }  p, p' [% K5 g7 d
  39. Sampling rate                            : 48.0 kHz" N# Y8 E- u- c* s
  40. Frame rate                               : 93.750 FPS (512 SPF)" j; t9 i5 J' @( }2 ?
  41. Bit depth                                : 24 bits
    9 Z3 ^! Q7 g: X) ~+ Q
  42. Compression mode                         : Lossy" V# W/ R3 T9 v: ]
  43. Stream size                              : 1.12 GiB (20%)
    4 N; n! s2 `. i0 m: F6 g
  44. Language                                 : German: \2 t: `7 l" x+ r: K8 S2 Y
  45. Default                                  : Yes
    , z( i- m0 N' X( c0 g& m) h
  46. Forced                                   : No
      R0 _! |3 T7 Q, i5 ]4 j
  47. / |" j) M( ]& N; ~2 c; V+ A( {
  48. Text
    # t/ E2 \8 P: z
  49. ID                                       : 32 v- i, x! U7 y+ y6 T" b
  50. Format                                   : UTF-8  n4 t% Z3 ^  D
  51. Codec ID                                 : S_TEXT/UTF8$ M: [) G8 W$ o6 _) T8 T
  52. Codec ID/Info                            : UTF-8 Plain Text" g  q2 i) I% e$ v6 W2 m" b
  53. Duration                                 : 1 h 39 min* s# e8 ^8 K. a  {' \( A
  54. Bit rate                                 : 43 b/s
    4 x) l2 l1 Y, m- ]
  55. Count of elements                        : 988! b( p1 X( Z) V& s- \
  56. Stream size                              : 31.5 KiB (0%)5 v, Q/ N, X5 G- y3 [, U7 J
  57. Language                                 : English
    * I5 Y8 Y, C: Q; ]% y8 E) U
  58. Default                                  : Yes
    0 {' e: q4 u, p; p$ H
  59. Forced                                   : No
    - ?6 b2 m& w3 R+ G# _, J# p
  60. : A7 \' B# X& V* d: g( P
  61. Menu/ D+ S/ Z2 T: ^% b; U
  62. 00:00:00.000                             : :Kapitel 014 e/ D6 r% M$ ?1 [, B3 x5 {) g
  63. 00:08:01.792                             : :Kapitel 02* I2 O" `0 D6 R' F0 K; s
  64. 00:14:55.583                             : :Kapitel 03* [! P* j" m0 d7 Q  F
  65. 00:22:16.375                             : :Kapitel 04
    6 w+ `0 k' D7 Z' C
  66. 00:28:53.875                             : :Kapitel 052 ~8 J" X6 C4 c: H0 T% C
  67. 00:34:12.875                             : :Kapitel 06
    2 `+ u" m, D" ~
  68. 00:41:06.833                             : :Kapitel 07
    % `& ~- z1 l$ C3 A
  69. 00:48:43.250                             : :Kapitel 08
    6 K+ ~2 d' i% g* e/ @
  70. 00:55:50.917                             : :Kapitel 093 l, w/ [, _" t1 b
  71. 01:02:01.333                             : :Kapitel 10
    % T/ `3 ~0 e! u
  72. 01:08:58.083                             : :Kapitel 11
    . X8 E6 G2 Q, d0 m& j! }% ~
  73. 01:16:36.167                             : :Kapitel 12  a8 G' S; q) v! J5 {# K7 Q. z
  74. 01:22:57.708                             : :Kapitel 13
    1 P+ z8 B0 r5 d/ b- B) m% g
  75. 01:29:51.333                             : :Kapitel 14: y; d+ p1 h( `9 i1 l
  76. 01:35:42.000                             : :Kapitel 15
    ; ^+ S. x; M$ v+ t/ @8 I" C& Q- I+ V
  77. 01:40:38.417                             : :Kapitel 16
復制代碼
" L2 Q4 W0 n; e' v: \' x8 i2 ?
. f  e" o0 j5 c
+ t8 B. j" d% M2 M
/ s* X% n8 |) d5 g

) _. j! O9 S8 ?2 P. @' W: X* ^- v5 J$ l

, V; U8 Y5 q/ Y' [; f& N; P: e. H( u+ Z! g1 w1 d! Z% _
分享到:  QQ好友和群QQ好友和群
收藏收藏
VIP會員免費任意下載本站所有資源!---點擊開通
回復

使用道具 舉報

級別:領銜主演 Lv.6

注冊時間
2019-4-24
最后登錄
2019-10-11
聽眾
13
收聽
0
主題
0
藍光幣
136 枚
貢獻
0 點
沙發
發表于 半小時前 | 只看該作者
樓主發貼辛苦了,謝謝樓主分享!我覺得中國高清電影網是注冊對了!
VIP會員免費任意下載本站所有資源!---點擊開通
回復

使用道具 舉報

懶得打字嘛,點擊右側快捷回復 【右側內容,后臺自定義】
您需要登錄后才可以回帖 登錄 | 立即注冊

本版積分規則

QQ|Archiver|手機版|小黑屋| 中國高清網 |網站地圖

GMT+8, 2019-10-11 16:57 , Processed in 1.404607 second(s), 38 queries .

Powered by HDchina X3.4

Copyright 2017-2019©HDchina.All right reserved

返回頂部 聯系我們
必赢客时时彩群计划