查看: 10|回復: 1
打印 上一主題 下一主題

[西部片] 朽木/化圍國度電影版 Deadwood.The.Movie.2019.720p.BluRay.x264-PFa 4.35GB

[復制鏈接]

 成長值: 2780

級別:資源管理組

注冊時間
2017-10-20
最后登錄
2019-10-11
聽眾
1
收聽
0
主題
84384
藍光幣
54193 枚
貢獻
8741 點
跳轉到指定樓層
樓主
發表于 昨天 22:21 | 只看該作者 |只看大圖 回帖獎勵 |倒序瀏覽 |閱讀模式

/ t$ _1 J% }; n( N
+ t1 g* o3 C, I' d譯  名 朽木 / 化圍國度電影版(臺) / 無法無天大電影(港)7 q' o' S6 x* _5 a/ w
片  名 Deadwood$ D3 a1 v* W" w# X' G- v. X
年  代 20192 L7 t2 u4 g! p* n
產  地 美國
! U2 _3 `5 h( W2 }0 _類  別 西部
8 b/ _. r% N! L$ b語  言 英語" L: w9 }+ n" d# J, \
上映日期 2019-05-31(美國)
6 c1 A! O, k4 {, L; s5 Y& uIMDb評分  9.3/10 from 397 users! }( t7 B; U4 Y
IMDb鏈接  http://www.imdb.com/title/tt4943998
) L, x0 L9 k7 O& D. V  S4 i6 l$ h豆瓣評分 0/10 from 0 users+ M5 h9 G9 ]' @4 Y
豆瓣鏈接 https://movie.douban.com/subject/27164161/
: f  J3 }% b3 x% [導  演 丹尼爾·米納漢 Daniel Minahan* Z) R1 i8 N8 }
編  劇 大衛·米爾契 David Milch
( y( K5 O% s. ?! c, ]2 f主  演 伊恩·麥柯肖恩 Ian McShane: E( ^# _$ B  f7 L
      蒂莫西·奧利芬特 Timothy Olyphant4 x: N) l* Y: a& k% B6 R# |# D# x
      金·迪肯斯 Kim Dickens' d2 G+ t- D/ q
      布拉德·道里夫 Brad Dourif/ N4 f* W$ [1 G* [
      莫莉·帕克 Molly Parker
; ]8 n" t1 X" y      肖恩·布里吉格斯 Sean Bridgers8 q* I: W7 A6 J9 [
      羅賓·薇格特 Robin Weigert* S9 y( [$ X2 x! ^6 q2 o# c
      安娜·岡 Anna Gunn
2 Q* S; L% I! V* W. k$ g9 n      葆拉·馬爾科姆森 Paula Malcomson+ C6 v/ _6 L7 r9 t% I& d# J" M( c
      杰弗瑞·瓊斯 Jeffrey Jones9 b1 z1 l2 R7 U/ b) B
      托尼·庫蘭 Tony Curran( g* f! w" s( o. I) k
      約翰·浩克斯 John Hawkes' |% o; i# [# i5 ^
      杰拉爾德·麥克雷尼 Gerald McRaney, u5 `5 I( e+ C$ n% J
      W·厄爾·布朗 W. Earl Brown( Q9 |9 o% U2 d; }. D9 X
      威廉·拿德森 William Sanderson+ Q+ f; z2 `6 R
      戴頓·考利 Dayton Callie9 U  c2 q& p  w- L
      杰德·佩蒂約翰 Jade Pettyjohn0 t7 v: s! Y! H3 \' C  K
      Geri Jewell
8 Z$ @4 W( |% A/ e      基內·揚 Keone Young+ f3 l1 H; h7 z) D. k# J
      Franklyn Ajaye: P( d7 D+ Y7 u5 C
      Jerry Cantrell' `6 D+ R4 V( \
      伊戈·米基塔斯 Ego Mikitas2 i/ c- D1 }, ?' S, }; V3 _- X, F
      范·埃佩爾森 Van Epperson( J8 C+ J0 T9 B! \0 t7 `
      哈爾·戴恩 Hal Dion
* y8 c* X8 P5 `$ T7 ^( Y" M  T
( U! l& C" Z  c6 D) f4 [, L  i5 Z/ P- ~) x2 ]" K
標  簽 西部 | 美國 | HBO | 2019 | TimothyOlyphant | 美國電影 | 電影 | 這是我最愛的西部片
1 I. A# \/ l- w# t, a: h( n9 d3 o+ l
簡  介  / |4 F% Y8 Z. q
' `8 K) Y9 B7 w) y8 M( o% L2 |' C
  HBO正式宣布電影版[朽木]將于10月開機,有望明春播出。去年便已傳出《朽木》編劇大衛·米爾契已完成了電影版劇本。劇版于2004年至2006年播出了三季,但粉絲始終沒有迎來最終的大結局,該劇故事圍繞美國疆界之圍的一個礦鎮展開。此前有消息稱原劇眾卡司均有望回歸,包括伊恩·麥柯肖恩、蒂莫西·奧利芬特、約翰·浩克斯、莫莉·帕克、布拉德·道里夫等。7 p( h# Y6 f. h0 H: w) O, w
/ z0 P5 |6 N$ A1 x7 ~: ~! V
  1. Video
    4 W# ^* `* F: S2 P  M
  2. ID                                       : 1
    $ e  q' h% n6 L, N+ P* D. b. j
  3. Format                                   : AVC1 x( ?8 g, J$ |1 c9 N  l! T" K/ Q
  4. Format/Info                              : Advanced Video Codec
    ( o( k* h( p* B2 ^, P
  5. Format profile                           : [email protected]1 B7 A1 E& D7 K. m4 W
  6. Format settings                          : CABAC / 5 Ref Frames* p* M4 N- O9 w/ n! n. n
  7. Format settings, CABAC                   : Yes
    ; N2 f5 x3 r/ g. ~  @- \
  8. Format settings, Reference frames        : 5 frames
    ! _4 D! ^; V$ C$ A9 r" L
  9. Codec ID                                 : V_MPEG4/ISO/AVC; B+ }5 h) \! ^0 k6 f
  10. Duration                                 : 1 h 50 min
    $ v$ |+ N. p" `9 K
  11. Bit rate                                 : 4 153 kb/s
    ' l$ |" D+ Z, j3 c
  12. Width                                    : 1 280 pixels2 F2 _" `6 M6 y/ ?5 ]+ Q# d# E6 W
  13. Height                                   : 640 pixels
    2 u8 c; i* |. A
  14. Display aspect ratio                     : 2.000
    7 D0 K! e% ~- j2 l) V. b
  15. Frame rate mode                          : Constant* I$ o" F; C* G3 B5 v
  16. Frame rate                               : 23.976 (24000/1001) FPS% e& @2 b6 T5 w4 j9 ~4 c, c
  17. Color space                              : YUV
    ; t- \" @* ?9 L6 [
  18. Chroma subsampling                       : 4:2:0' H+ {6 t) c+ i, m4 m
  19. Bit depth                                : 8 bits- F$ U- x6 h8 l1 y
  20. Scan type                                : Progressive+ M. F2 F% h2 v
  21. Bits/(Pixel*Frame)                       : 0.211' V5 g# ^; }5 @: F6 U% Z8 e7 C  h
  22. Stream size                              : 3.19 GiB (73%)
    & W6 ^8 V! |: V& ]; Y4 |) h( i
  23. Writing library                          : x264 core 157 r2969 d4099dd
    . ?* h; t# A$ p$ @9 ^' v9 F
  24. Encoding settings                        : cabac=1 / ref=5 / deblock=1:0:0 / analyse=0x3:0x133 / me=umh / subme=8 / psy=1 / psy_rd=1.00:0.00 / mixed_ref=1 / me_range=16 / chroma_me=1 / trellis=1 / 8x8dct=1 / cqm=0 / deadzone=21,11 / fast_pskip=0 / chroma_qp_offset=-2 / threads=12 / lookahead_threads=2 / sliced_threads=0 / nr=0 / decimate=1 / interlaced=0 / bluray_compat=0 / constrained_intra=0 / bframes=3 / b_pyramid=2 / b_adapt=1 / b_bias=0 / direct=1 / weightb=1 / open_gop=0 / weightp=2 / keyint=250 / keyint_min=23 / scenecut=40 / intra_refresh=0 / rc_lookahead=40 / rc=2pass / mbtree=1 / bitrate=4153 / ratetol=1.0 / qcomp=0.60 / qpmin=0 / qpmax=69 / qpstep=4 / cplxblur=20.0 / qblur=0.5 / ip_ratio=1.40 / aq=1:1.00- \5 M/ S: x0 ~' F$ l, q
  25. Language                                 : English
    # e( b; W6 w" f0 a  @1 ?) M; y# w
  26. Default                                  : Yes
    7 i- }/ k* V+ @6 ]
  27. Forced                                   : No
    1 q: J% H! [2 d5 z- _( i+ k
  28. * w: r7 n3 z2 ?" J4 c
  29. Audio/ C: l/ n* C9 X% t" v1 r/ P
  30. ID                                       : 29 [( L* J& I- f9 M( Q1 H( S
  31. Format                                   : DTS
    0 a9 F' y! i8 I0 q
  32. Format/Info                              : Digital Theater Systems
    ) Q8 {6 q: F! a5 [. l
  33. Codec ID                                 : A_DTS3 _# I8 h' i. ]
  34. Duration                                 : 1 h 50 min! E2 R4 U( c2 R4 v+ _
  35. Bit rate mode                            : Constant
    9 U6 z4 V& r; W" y7 M
  36. Bit rate                                 : 1 509 kb/s3 Q+ m% H. T  b& S
  37. Channel(s)                               : 6 channels& N8 s4 E7 C: {' _! E4 f2 j
  38. Channel layout                           : C L R Ls Rs LFE
    1 d- F) l" P7 v
  39. Sampling rate                            : 48.0 kHz
    ' N1 @# v: O( X. k% q
  40. Frame rate                               : 93.750 FPS (512 SPF)7 [6 ~0 {) I- |7 y7 j
  41. Bit depth                                : 24 bits) \. H1 {, E4 D9 a% _# v
  42. Compression mode                         : Lossy
    9 b3 s: \: q, I5 G/ }
  43. Stream size                              : 1.16 GiB (27%)
    5 p0 P' Y/ f( m& J5 Z) T
  44. Default                                  : Yes
    # M$ `$ W( j2 L% ^+ J! E
  45. Forced                                   : No
復制代碼

$ E! X. n; s0 b 3 _* F( D8 ~" U( k4 D7 z

& R/ D8 M0 |4 x( t6 V$ B
* \6 L* j! v% s" H0 J8 K0 m! q
: z; V/ m: y& i) |/ K( f
, S+ F3 p4 }7 Q' J* [5 T
+ }: ^" i5 k* [3 T: m9 S% K8 B7 F  E% I* j1 l$ |
9 D( w0 T& s5 R* z  k, f. ?8 A& q
分享到:  QQ好友和群QQ好友和群
收藏收藏
VIP會員免費任意下載本站所有資源!---點擊開通
回復

使用道具 舉報

級別:領銜主演 Lv.6

注冊時間
2019-4-24
最后登錄
2019-10-11
聽眾
13
收聽
0
主題
0
藍光幣
136 枚
貢獻
0 點
沙發
發表于 半小時前 | 只看該作者
樓主發貼辛苦了,謝謝樓主分享!我覺得中國高清電影網是注冊對了!
VIP會員免費任意下載本站所有資源!---點擊開通
回復

使用道具 舉報

懶得打字嘛,點擊右側快捷回復 【右側內容,后臺自定義】
您需要登錄后才可以回帖 登錄 | 立即注冊

本版積分規則

QQ|Archiver|手機版|小黑屋| 中國高清網 |網站地圖

GMT+8, 2019-10-11 17:03 , Processed in 0.997341 second(s), 38 queries .

Powered by HDchina X3.4

Copyright 2017-2019©HDchina.All right reserved

返回頂部 聯系我們
必赢客时时彩群计划