查看: 92|回復: 1
打印 上一主題 下一主題

[驚悚片] 尖叫的頭骨 The.Screaming.Skull.1958.720p.BluRay.x264-LATENCY 3.28GB

[復制鏈接]

 成長值: 4690

級別:資源管理組

注冊時間
2017-10-20
最后登錄
2020-4-1
聽眾
1
收聽
0
主題
94249
藍光幣
125457 枚
貢獻
18614 點
跳轉到指定樓層
樓主
發表于 2019-10-10 22:15:19 | 只看該作者 |只看大圖 回帖獎勵 |倒序瀏覽 |閱讀模式
2 M  o" Z6 }8 A  u, L

( X( P0 \) Q# X( Z5 Z" _, `譯  名 尖叫的頭骨+ y6 u4 l9 n7 y6 o/ c
片  名 The Screaming Skull2 R: q: h- u7 K( o
年  代 1958
5 v* J: n; L- y2 r8 k- ~: k8 ]產  地 美國$ o$ \7 l4 j: F  _$ D, A
類  別 驚悚 / 恐怖
, m4 l$ L" a' C語  言 英語
# }5 x5 |# L7 n: m6 q+ i) O上映日期 1958-01(美國)
' P  J7 c% Q2 p1 uIMDb評分  3.7/10 from 2814 users
! }* X6 k; f. ^4 o0 yIMDb鏈接  http://www.imdb.com/title/tt00521691 l2 A  _  c2 y7 ^
豆瓣評分 0/10 from 0 users% _2 z7 k/ d1 Q  W. `' u
豆瓣鏈接 https://movie.douban.com/subject/2362646/
- b% u# J- x: ?. R片  長 68 分鐘
9 M8 C; p' v! f0 r導  演 Alex Nicol
+ {2 z2 \2 v; V主  演 John Hudson. M9 M1 C' _7 R3 `3 j
       Peggy Webber
- d0 K/ l4 }; L' I       Russ Conway
5 E, X, ?0 n- D* M; K8 o% E$ e7 ]- A0 ~
$ `9 v+ }$ {; X
標  簽 美國 | 恐怖 | 驚悚 | 1958 | BDMV | 美國電影 | 國圍電影 | 不是默片
  A4 w0 u% Y" T0 t5 c9 {6 W4 m  ]- f, h! ?* K0 m7 h
簡  介  
9 a5 p+ A  e: J2 E+ f6 g  ]& E! ]8 w# q
  The film opens with a narrated disclaimer over footage of an opening coffin. The narrator explains that the film's climax is so terrifying that it may kill the viewer, and reassures the audience that if they die of fright while watching the film, they will receive a free burial service, and it closes on the casket which has a card inside reading "Reserved for You."[1]
. \, c9 J; s4 u/ E/ W  Newlyweds Jenni (Peggy Webber) and Eric (John Hudson) move into Eric's palatial country home. Jenni is Eric's second wife; his first wife Marion died when she accidentally slipped and hit her head on the edge of a decorative pond on the estate. At the home they meet Eric's friends, the Reverend Snow (Russ Conway) and his wife (Toni Johnson), as well as Mickey (Alex Nicol), the developmentally disabled gardener. Eric privately mentions to the Snows that Jenni spent time in an asylum following the sudden death of both her parents, and Mrs. Snow reveals that Jenni is very wealthy.
$ r7 \* t# _" R4 z: {$ {, D  Jenni is disturbed both by Mickey's belief that Marion's ghost wanders the estate and by Marion's self-portrait inside the house, which Jenni believes resembles her mother. When she begins to hear unexplained screaming noises and see skulls around her house, she believes that Marion is haunting her. Though Eric speculates to Jenni that Mickey, who was a childhood friend of Marion and thus dislikes Jenni, may be behind the trickery, Jenni worries that she is going insane. Eric then suggests to remove Marion's self-portrait from the home. Eric and Jenni take the painting outside and burn it. While they clean up the remains of the painting, a skull emerges from the ashes. While Jenni panics at the sight of the skull, Eric denies that the skull is there. Jenni faints and Eric withdraws the skull and hides it, revealing that he was responsible for the trickery all along in an effort to get hold of her wealth.! E; e3 R$ c5 D0 n2 B6 T
  Believing she has finally lost her sanity, Jenni resolves to be committed. She tells Eric that the entire property will be meticulously searched for the skull as a last resort. Before Eric can retrieve it, Mickey secretly steals the skull and brings it to the Reverend, revealing Eric's plans. That night, Eric prepares to murder Jenni and stage it as a suicide. Jenni sees Marion's ghost in Mickey's greenhouse and flees back to the house. When she enters, Eric begins throttling her. The ghost then appears and chases Eric outside and about the property; it finally corners and attacks him, drowning him in the decorative pond.
( g* l9 K( i4 B2 N/ s6 [  After Jenni regains consciousness, the Snows arrive. Mrs. Snow comforts a hysterical Jenni and the Reverend discovers Eric's body in the pond. Some undisclosed time later, Jenni and the Snows depart from the house. Reverend Snow declares whether or not Marion's death was an accident will remain a mystery.6 J* ?; [% t9 c" r- q6 V& y( B- U
  1. Video
    ! g$ Y" Y. K5 j: \
  2. ID                                       : 1
    0 o' W. r$ k1 W0 h# _; g# A# q
  3. Format                                   : AVC! ?) `( l. L- ~" j. s9 N% {. f
  4. Format/Info                              : Advanced Video Codec7 Q+ }0 k4 @7 s. s: k, G. M
  5. Format profile                           : [email protected]
    ; c9 J% K9 K) @6 l5 s: H
  6. Format settings                          : CABAC / 5 Ref Frames
    7 E' Y0 r6 V% C
  7. Format settings, CABAC                   : Yes
    2 K) \  `1 r; J
  8. Format settings, Reference frames        : 5 frames, b. ]& N* ~: `$ Z. m( I- T
  9. Codec ID                                 : V_MPEG4/ISO/AVC
    7 ~9 @+ X. r; R/ m
  10. Duration                                 : 1 h 8 min1 z8 h/ p4 w7 D& X, K$ y$ R
  11. Bit rate                                 : 5 376 kb/s  n% z% Y" a$ x
  12. Width                                    : 1 280 pixels
    2 _7 D5 X% b7 z( M
  13. Height                                   : 696 pixels
    & W& a" h& Q/ j- p$ j
  14. Display aspect ratio                     : 1.85:1
    * Q$ Z3 t) J7 [5 L1 f4 O$ a( k4 x4 O
  15. Frame rate mode                          : Constant# {$ R3 X% [+ w( W  C/ O9 u! r3 d2 {
  16. Frame rate                               : 23.976 (24000/1001) FPS
    - Z+ E! [+ g1 n2 f+ K
  17. Color space                              : YUV6 e) j: r1 b9 h  w( S: a0 w8 a) R  |
  18. Chroma subsampling                       : 4:2:0
    3 l9 u1 a8 g  G! b+ f! q5 |
  19. Bit depth                                : 8 bits
    5 a/ E/ z  @6 o* S
  20. Scan type                                : Progressive' h* |! [; d4 B2 Y# A
  21. Bits/(Pixel*Frame)                       : 0.252
    9 b4 w. l- X7 I, f: c4 p5 ?8 J& n
  22. Stream size                              : 2.56 GiB (78%), S4 ?  k8 K$ Q% v$ w
  23. Writing library                          : x264 core 157 r2969 d4099dd1 f; }1 i6 A+ Z1 I, g
  24. Encoding settings                        : cabac=1 / ref=5 / deblock=1:0:0 / analyse=0x3:0x113 / me=umh / subme=8 / psy=1 / psy_rd=1.00:0.00 / mixed_ref=1 / me_range=16 / chroma_me=1 / trellis=2 / 8x8dct=1 / cqm=0 / deadzone=21,11 / fast_pskip=0 / chroma_qp_offset=-2 / threads=22 / lookahead_threads=3 / sliced_threads=0 / nr=0 / decimate=1 / interlaced=0 / bluray_compat=0 / constrained_intra=0 / bframes=3 / b_pyramid=2 / b_adapt=1 / b_bias=0 / direct=3 / weightb=1 / open_gop=0 / weightp=2 / keyint=250 / keyint_min=23 / scenecut=40 / intra_refresh=0 / rc_lookahead=50 / rc=2pass / mbtree=1 / bitrate=5376 / ratetol=1.0 / qcomp=0.60 / qpmin=0 / qpmax=69 / qpstep=4 / cplxblur=20.0 / qblur=0.5 / ip_ratio=1.40 / aq=1:1.00
    5 T9 U) J4 q% ]! b' @- V8 d6 p
  25. Default                                  : Yes
    6 b. E2 _8 K% ?. Q& f6 G2 J
  26. Forced                                   : No9 g3 j  H6 i3 W4 i  o" h6 I$ z8 X% Z

  27. 5 X/ e! |0 |1 _( L7 A7 P5 I: |+ w8 B- V
  28. Audio
    , ~+ z3 [% m5 K, {# V+ [. ?2 q) Z
  29. ID                                       : 2
    - V2 f+ ]* ^/ l1 G7 B
  30. Format                                   : DTS$ k- q9 M1 s  \+ C
  31. Format/Info                              : Digital Theater Systems+ d- [4 N) S1 M. s/ j+ u
  32. Codec ID                                 : A_DTS3 x! p5 c; \" T5 W
  33. Duration                                 : 1 h 8 min
    ' d3 j% o) N8 l' ?4 W
  34. Bit rate mode                            : Constant
    " r$ B7 ~) O& D( P$ J* i4 y
  35. Bit rate                                 : 1 509 kb/s
    ; N( t0 |( `2 E8 m
  36. Channel(s)                               : 2 channels# j$ k( W4 y% F' N: y
  37. Channel layout                           : L R% P9 I" j) {) L8 h; @, n9 D
  38. Sampling rate                            : 48.0 kHz6 `7 s# Q$ [/ A2 q
  39. Frame rate                               : 93.750 FPS (512 SPF)
    4 q; P* D: w3 t8 C, F' u
  40. Bit depth                                : 24 bits
    . ?* j% T& Z4 Y) J% ?
  41. Compression mode                         : Lossy
    * f% H+ b& z  G! b
  42. Stream size                              : 735 MiB (22%)# S+ P+ Z# M$ x/ S3 {
  43. Title                                    : English  L' x, I  }8 N
  44. Language                                 : English$ D2 I& }% R  r, d
  45. Default                                  : No8 K1 x& z5 F' I1 q
  46. Forced                                   : No
    . I; n+ p1 j& s

  47. . k7 B" e/ L# _: [* Q
  48. Text8 e9 d; d! M) i0 T
  49. ID                                       : 3# |1 I# n# m- E6 x0 u( `
  50. Format                                   : UTF-8
    $ }9 ~* G, B" Q* h# t& y
  51. Codec ID                                 : S_TEXT/UTF8
    : ?. @+ N5 x6 @* x! U. d/ i
  52. Codec ID/Info                            : UTF-8 Plain Text$ y8 m6 T# U- x  A6 }* p$ F
  53. Duration                                 : 1 h 7 min- a; f- A7 l/ `2 h8 _; w
  54. Bit rate                                 : 45 b/s
    - C% ?5 ~' f& _9 R% ^$ @6 c; `8 m; i8 V
  55. Count of elements                        : 846
    7 v' `* J3 S6 {# K' I2 Q( S4 I
  56. Stream size                              : 22.4 KiB (0%)
      z: \9 y! i8 l+ K6 t# C5 g
  57. Title                                    : English-HI
    6 A  h2 @2 O+ l' X
  58. Language                                 : English
    5 E; d4 D7 _; O! Q% u1 ^" X2 w
  59. Default                                  : No
    5 H( Z' G( T. W: e& W$ P- d
  60. Forced                                   : No" T* z$ [- s  H  q
  61. # k" \. `7 b, s8 o0 ?& J
  62. Menu" O+ T0 ?# T9 g) n& Z: t) H) T
  63. 00:00:00.000                             : en:Chapter 01
    9 f' F/ i, I* H, n
  64. 00:04:30.061                             : en:Chapter 023 ?; d' V, e# G9 d2 G; z
  65. 00:10:48.398                             : en:Chapter 03' m5 B" I$ V+ v2 m
  66. 00:17:23.834                             : en:Chapter 04
    . P! }: p4 S' s- ~
  67. 00:22:40.901                             : en:Chapter 05
    9 ^/ O! d; }2 G! }
  68. 00:28:18.822                             : en:Chapter 06* O; G6 y4 ^4 w. O
  69. 00:34:40.912                             : en:Chapter 07& I" w! ?+ t" b3 M( [
  70. 00:39:26.823                             : en:Chapter 08
    $ L3 ~& q1 E) j9 v
  71. 00:45:53.417                             : en:Chapter 09
    & X# o9 f: {" F. y) k' u# l
  72. 00:52:36.779                             : en:Chapter 10
    6 f! M3 v% C, M7 b0 V. b
  73. 00:57:44.127                             : en:Chapter 11$ z. F* L  d+ c7 u, l4 K) N8 h) m& U
  74. 01:03:09.911                             : en:Chapter 12
復制代碼

0 O! E7 ]" H3 S
' K7 M* u% ^- R, k, x5 c1 g0 h2 f1 J9 E
3 u1 y8 v# ]( h8 o' B9 |4 l
8 y) c) f4 d6 Q: D
3 _7 l; ~. Q, A" g

) q2 i2 l2 r* e
* ~# h; r! c% L1 x8 Q# m6 V' u% I/ ]4 a
分享到:  QQ好友和群QQ好友和群
收藏收藏
回復

使用道具 舉報

級別:一線明星 Lv.8

注冊時間
2019-4-24
最后登錄
2020-4-1
聽眾
14
收聽
0
主題
0
藍光幣
426 枚
貢獻
0 點
沙發
發表于 2019-10-11 16:05:43 | 只看該作者
樓主發貼辛苦了,謝謝樓主分享!我覺得中國高清電影網是注冊對了!
回復

使用道具 舉報

懶得打字嘛,點擊右側快捷回復 【右側內容,后臺自定義】
您需要登錄后才可以回帖 登錄 | 立即注冊

本版積分規則

Archiver|手機版|小黑屋| 中國高清網 ( ICP備17007870號-2 ) |網站地圖 

GMT+8, 2020-4-2 11:41 , Processed in 0.112025 second(s), 37 queries .

Powered by HDchina X3.4

Copyright 2017-2019©HDchina.All right reserved

返回頂部 聯系我們
必赢客时时彩群计划