查看: 281|回復: 1
打印 上一主題 下一主題

[10bit.SDR] 夏福特 Shaft.2019.2160p.BluRay.x265.10bit.SDR.DTS-HD.MA.TrueHD.7.1.Atmos-SWTYBLZ 35.52GB

[復制鏈接]

 成長值: 4710

級別:資源管理組

注冊時間
2017-10-20
最后登錄
2020-4-2
聽眾
1
收聽
0
主題
94298
藍光幣
126005 枚
貢獻
18663 點
跳轉到指定樓層
樓主
發表于 2019-10-10 21:57:41 | 只看該作者 |只看大圖 回帖獎勵 |倒序瀏覽 |閱讀模式


譯  名 夏福特 / Shaft 2 / Son of Shaft / 夏福特之子 / 新殺戮戰警(臺) / 殺戮戰警2 / 辣手刑警 2:勉強父子檔(港) / 鐵桿神探2
片  名 Shaft
年  代 2019
產  地 美國
類  別 喜劇 / 動作 / 犯罪
語  言 英語
上映日期 2019-06-14(美國)
IMDb評分  6.4/10 from 26729 users
IMDb鏈接  http://www.imdb.com/title/tt4463894
豆瓣評分 6.8/10 from 5224 users
豆瓣鏈接 https://movie.douban.com/subject/27116384/
片  長 111分鐘
導  演 蒂姆·斯托瑞 Tim Story
編  劇 肯尼亞·巴里斯 Kenya Barris / 亞歷克斯·巴諾 Alex Barnow / 歐內斯特·泰迪曼 Ernest Tidyman
主  演 塞繆爾·杰克遜 Samuel L. Jackson
       杰西·厄舍 Jessie Usher
       理查德·朗德特里 Richard Roundtree
       雷吉娜·赫爾 Regina Hall
       亞歷山德拉·希普 Alexandra Shipp
       馬特·勞里亞 Matt Lauria
       提圖斯·維里沃 Titus Welliver
       馬索·曼恩 Method Man
       伊薩赫·德·班克爾 Isaach De Bankolé
       阿萬·喬賈 Avan Jogia
       勞倫·維勒斯 Lauren Vélez
       伊恩·卡塞爾伯里 Ian Casselberry
       西爾維婭·杰弗里斯 Sylvia Jefferies
       邁克·頓斯頓 Mike Dunston
       查爾斯·格林 Charles Green
       艾德麗安·C·摩爾 Adrienne C. Moore
       喬恩·亞瑟 Jon Arthur
       肖恩·貝克 Sean Baker
       蒂莫西·卡爾 Timothy Carr
       大衛·鄧斯頓 David Dunston
       何塞·阿爾弗雷多·費爾南德斯 José Alfredo Fernandez
       安東尼·B·哈里斯 Anthony B. Harris
       德梅特里·蘭德爾 Demetri Landell
       漢斯·馬雷羅 Hans Marrero
       布賴希亞·馬歇爾 Brayhia Marshall
       肖恩·麥克米倫 Shaun McMillan
       本杰明·韋弗 Benjamin Weaver


標  簽 喜劇 | 動作 | 犯罪 | 美國 | 黑人 | 2019 | 黑色幽默 | 華納

簡  介  

  杰西·厄舍加盟[殺戮戰警]續作[夏福特之子](Son of Shaft,暫譯),塞繆爾·杰克遜同時回歸。本片由蒂姆·斯托瑞([佐州自救兄弟])執導,肯尼亞·巴里斯編劇。厄舍扮演杰克遜的兒子,他同時也是一名聯邦調查局工作人員,更是網絡專家。
  1. Video
  2. ID                                       : 1
  3. Format                                   : HEVC
  4. Format/Info                              : High Efficiency Video Coding
  5. Format profile                           : Main [email protected]@High
  6. Codec ID                                 : V_MPEGH/ISO/HEVC
  7. Duration                                 : 1 h 51 min
  8. Bit rate                                 : 36.9 Mb/s
  9. Width                                    : 3 840 pixels
  10. Height                                   : 1 608 pixels
  11. Display aspect ratio                     : 2.40:1
  12. Frame rate mode                          : Constant
  13. Frame rate                               : 23.976 (24000/1001) FPS
  14. Color space                              : YUV
  15. Chroma subsampling                       : 4:2:0
  16. Bit depth                                : 10 bits
  17. Bits/(Pixel*Frame)                       : 0.249
  18. Stream size                              : 28.8 GiB (81%)
  19. Title                                    : Shaft.2019.2160p.BluRay.x265.10bit.SDR.DTS-HD.MA.TrueHD.7.1.Atmos-SWTYBLZ
  20. Writing library                          : x265 3.0ed72af837053:[Windows][GCC 8.2.0][64 bit] 10bit
  21. Encoding settings                        : cpuid=1111039 / frame-threads=16 / numa-pools=44,44 / wpp / no-pmode / no-pme / no-psnr / no-ssim / log-level=2 / input-csp=1 / input-res=3840x1608 / interlace=0 / total-frames=160403 / level-idc=51 / high-tier=1 / uhd-bd=0 / ref=3 / no-allow-non-conformance / repeat-headers / annexb / aud / hrd / info / hash=0 / no-temporal-layers / no-open-gop / min-keyint=1 / keyint=24 / gop-lookahead=0 / bframes=4 / b-adapt=2 / b-pyramid / bframe-bias=0 / rc-lookahead=25 / lookahead-slices=4 / scenecut=40 / radl=0 / no-splice / no-intra-refresh / ctu=64 / min-cu-size=8 / no-rect / no-amp / max-tu-size=32 / tu-inter-depth=1 / tu-intra-depth=1 / limit-tu=0 / rdoq-level=0 / dynamic-rd=0.00 / no-ssim-rd / signhide / no-tskip / nr-intra=0 / nr-inter=0 / no-constrained-intra / strong-intra-smoothing / max-merge=2 / limit-refs=3 / no-limit-modes / me=1 / subme=2 / merange=57 / temporal-mvp / weightp / no-weightb / no-analyze-src-pics / deblock=0:0 / no-sao / no-sao-non-deblock / rd=3 / no-early-skip / rskip / no-fast-intra / no-tskip-fast / no-cu-lossless / no-b-intra / no-splitrd-skip / rdpenalty=0 / psy-rd=2.00 / psy-rdoq=0.00 / no-rd-refine / no-lossless / cbqpoffs=0 / crqpoffs=0 / rc=crf / crf=16.0 / qcomp=0.60 / qpstep=4 / stats-write=0 / stats-read=0 / vbv-maxrate=160000 / vbv-bufsize=160000 / vbv-init=0.9 / crf-max=0.0 / crf-min=0.0 / ipratio=1.40 / pbratio=1.30 / aq-mode=1 / aq-strength=1.00 / cutree / zone-count=0 / no-strict-cbr / qg-size=32 / no-rc-grain / qpmax=69 / qpmin=0 / no-const-vbv / sar=1 / overscan=0 / videoformat=5 / range=0 / colorprim=2 / transfer=2 / colormatrix=2 / chromaloc=0 / display-window=0 / max-cll=0,0 / min-luma=0 / max-luma=1023 / log2-max-poc-lsb=8 / vui-timing-info / vui-hrd-info / slices=1 / opt-qp-pps / opt-ref-list-length-pps / no-multi-pass-opt-rps / scenecut-bias=0.05 / no-opt-cu-delta-qp / no-aq-motion / no-hdr / no-hdr-opt / no-dhdr10-opt / no-idr-recovery-sei / analysis-reuse-level=5 / scale-factor=0 / refine-intra=0 / refine-inter=0 / refine-mv=0 / refine-ctu-distortion=0 / no-limit-sao / ctu-info=0 / no-lowpass-dct / refine-analysis-type=0 / copy-pic=1 / max-ausize-factor=1.0 / no-dynamic-refine / no-single-sei / no-hevc-aq / qp-adaptation-range=1.00
  22. Default                                  : Yes
  23. Forced                                   : No

  24. Audio #1
  25. ID                                       : 2
  26. Format                                   : MLP FBA 16-ch
  27. Format/Info                              : Meridian Lossless Packing FBA with 16-channel presentation
  28. Commercial name                          : Dolby TrueHD with Dolby Atmos
  29. Codec ID                                 : A_TRUEHD
  30. Duration                                 : 1 h 51 min
  31. Bit rate mode                            : Variable
  32. Bit rate                                 : 3 622 kb/s
  33. Maximum bit rate                         : 6 336 kb/s
  34. Channel(s)                               : 8 channels
  35. Channel layout                           : L R C LFE Ls Rs Lb Rb
  36. Sampling rate                            : 48.0 kHz
  37. Frame rate                               : 1 200.000 FPS (40 SPF)
  38. Compression mode                         : Lossless
  39. Stream size                              : 2.82 GiB (8%)
  40. Title                                    : Shaft.2019.2160p.BluRay.x265.10bit.SDR.DTS-HD.MA.TrueHD.7.1.Atmos-SWTYBLZ
  41. Language                                 : English
  42. Default                                  : Yes
  43. Forced                                   : No
  44. Number of dynamic objects                : 15
  45. Bed channel count                        : 1 channel
  46. Bed channel configuration                : LFE

  47. Audio #2
  48. ID                                       : 3
  49. Format                                   : DTS XLL
  50. Format/Info                              : Digital Theater Systems
  51. Commercial name                          : DTS-HD Master Audio
  52. Codec ID                                 : A_DTS
  53. Duration                                 : 1 h 51 min
  54. Bit rate mode                            : Variable
  55. Bit rate                                 : 4 026 kb/s
  56. Channel(s)                               : 8 channels
  57. Channel layout                           : C L R LFE Lb Rb Lss Rss
  58. Sampling rate                            : 48.0 kHz
  59. Frame rate                               : 93.750 FPS (512 SPF)
  60. Bit depth                                : 24 bits
  61. Compression mode                         : Lossless
  62. Stream size                              : 3.14 GiB (9%)
  63. Title                                    : Shaft.2019.2160p.BluRay.x265.10bit.SDR.DTS-HD.MA.TrueHD.7.1.Atmos-SWTYBLZ
  64. Language                                 : English
  65. Default                                  : No
  66. Forced                                   : No

  67. Audio #3
  68. ID                                       : 4
  69. Format                                   : AC-3
  70. Format/Info                              : Audio Coding 3
  71. Commercial name                          : Dolby Digital
  72. Codec ID                                 : A_AC3
  73. Duration                                 : 1 h 51 min
  74. Bit rate mode                            : Constant
  75. Bit rate                                 : 640 kb/s
  76. Channel(s)                               : 6 channels
  77. Channel layout                           : L R C LFE Ls Rs
  78. Sampling rate                            : 48.0 kHz
  79. Frame rate                               : 31.250 FPS (1536 SPF)
  80. Bit depth                                : 16 bits
  81. Compression mode                         : Lossy
  82. Stream size                              : 510 MiB (1%)
  83. Title                                    : Shaft.2019.2160p.BluRay.x265.10bit.SDR.DTS-HD.MA.TrueHD.7.1.Atmos-SWTYBLZ
  84. Language                                 : English
  85. Service kind                             : Complete Main
  86. Default                                  : No
  87. Forced                                   : No

  88. Text #1
  89. ID                                       : 5
  90. Format                                   : UTF-8
  91. Codec ID                                 : S_TEXT/UTF8
  92. Codec ID/Info                            : UTF-8 Plain Text
  93. Duration                                 : 1 h 45 min
  94. Bit rate                                 : 79 b/s
  95. Count of elements                        : 2020
  96. Stream size                              : 61.5 KiB (0%)
  97. Title                                    : English-SRT
  98. Language                                 : English
  99. Default                                  : Yes
  100. Forced                                   : No

  101. Text #2
  102. ID                                       : 6
  103. Format                                   : PGS
  104. Muxing mode                              : zlib
  105. Codec ID                                 : S_HDMV/PGS
  106. Codec ID/Info                            : Picture based subtitle format used on BDs/HD-DVDs
  107. Duration                                 : 1 h 46 min
  108. Bit rate                                 : 49.1 kb/s
  109. Count of elements                        : 4356
  110. Stream size                              : 37.5 MiB (0%)
  111. Title                                    : English-PGS
  112. Language                                 : English
  113. Default                                  : No
  114. Forced                                   : No

  115. Text #3
  116. ID                                       : 7
  117. Format                                   : PGS
  118. Muxing mode                              : zlib
  119. Codec ID                                 : S_HDMV/PGS
  120. Codec ID/Info                            : Picture based subtitle format used on BDs/HD-DVDs
  121. Duration                                 : 1 h 50 min
  122. Bit rate                                 : 37.8 kb/s
  123. Count of elements                        : 3910
  124. Stream size                              : 29.9 MiB (0%)
  125. Title                                    : French-PGS
  126. Language                                 : French
  127. Default                                  : No
  128. Forced                                   : No

  129. Text #4
  130. ID                                       : 8
  131. Format                                   : PGS
  132. Muxing mode                              : zlib
  133. Codec ID                                 : S_HDMV/PGS
  134. Codec ID/Info                            : Picture based subtitle format used on BDs/HD-DVDs
  135. Duration                                 : 1 h 50 min
  136. Bit rate                                 : 42.9 kb/s
  137. Count of elements                        : 3888
  138. Stream size                              : 33.9 MiB (0%)
  139. Title                                    : Spanish-PGS
  140. Language                                 : Spanish
  141. Default                                  : No
  142. Forced                                   : No

  143. Menu
  144. 00:00:00.000                             : en:Chapter 01
  145. 00:08:02.774                             : en:Chapter 02
  146. 00:17:38.557                             : en:Chapter 03
  147. 00:27:55.924                             : en:Chapter 04
  148. 00:35:34.466                             : en:Chapter 05
  149. 00:41:22.438                             : en:Chapter 06
  150. 00:49:58.996                             : en:Chapter 07
  151. 00:59:05.208                             : en:Chapter 08
  152. 01:08:15.883                             : en:Chapter 09
  153. 01:17:30.563                             : en:Chapter 10
  154. 01:23:12.196                             : en:Chapter 11
  155. 01:33:29.270                             : en:Chapter 12
  156. 01:43:14.021                             : en:Chapter 13
  157. 01:46:54.742                             : en:Chapter 14
復制代碼









本帖隱藏的下載地址需要VIP會員才可瀏覽,您需要升級才可瀏覽,點擊這里升級VIP
分享到:  QQ好友和群QQ好友和群
收藏收藏
回復

使用道具 舉報

級別:群眾演員 Lv.3

注冊時間
2019-10-23
最后登錄
2020-4-1
聽眾
1
收聽
0
主題
0
藍光幣
61 枚
貢獻
0 點
沙發
發表于 2019-10-23 23:38:22 | 只看該作者

樓主太厲害了!樓主,電影應該很好看我覺得中國高清電影網真是個好地方!
回復

使用道具 舉報

懶得打字嘛,點擊右側快捷回復 【右側內容,后臺自定義】
您需要登錄后才可以回帖 登錄 | 立即注冊

本版積分規則

Archiver|手機版|小黑屋| 中國高清網 ( ICP備17007870號-2 ) |網站地圖

GMT+8, 2020-4-3 16:22 , Processed in 0.103091 second(s), 37 queries .

Powered by HDchina X3.4

Copyright 2017-2019©HDchina.All right reserved

返回頂部 聯系我們
必赢客时时彩群计划