查看: 9|回復: 1
打印 上一主題 下一主題

[劇情片] 科林尼案 The.Collini.Case.2019.720p.BluRay.x264-GUACAMOLE 5.45GB

[復制鏈接]

 成長值: 2780

級別:資源管理組

注冊時間
2017-10-20
最后登錄
2019-10-11
聽眾
1
收聽
0
主題
84384
藍光幣
54193 枚
貢獻
8741 點
跳轉到指定樓層
樓主
發表于 昨天 21:47 | 只看該作者 |只看大圖 回帖獎勵 |倒序瀏覽 |閱讀模式

  y1 x) x" Z- {" I" G: O4 f5 ]/ {2 U  k8 _; @
譯  名 科林尼案 / The Collini Case8 ]  n" ~1 V" F1 N
片  名 Der Fall Collini+ ~6 b7 N$ A( |5 W, ?* k
年  代 2019
. E7 j1 y) ^9 t產  地 德國4 H( p  P& H" Z6 I; x! V- L
類  別 劇情 / 犯罪
; {/ }7 a9 T9 R1 ?: {語  言 德語 / 意大利語 / 拉丁語7 s! M( e0 Z7 G6 Q# h4 k
上映日期 2019-04-18(德國)& F7 J5 [8 \0 p' ]6 b9 y& p
IMDb評分  7.3/10 from 885 users' Y; l  ^$ J+ A7 _* w* F. O$ _
IMDb鏈接  http://www.imdb.com/title/tt8739752
( A/ Q. w) O' b1 K豆瓣評分 0/10 from 0 users
) B' J% E: D$ d1 F3 c豆瓣鏈接 https://movie.douban.com/subject/30391289// B. l- K/ c0 t; d5 Y
片  長 118分鐘  @& a3 ?! U' ~0 \  ]8 {
導  演 馬可·克羅伊茨派因特納 Marco Kreuzpaintner
! A6 @. E! v- k. N9 E/ J% V編  劇 Robert Gold / Jens-Frederik Otto / 克里斯蒂安·奇貝特 Christian Zübert / Ferdinand von Schirach1 W& B5 P8 B5 L" B8 w$ t# [
主  演 亞歷山德拉·瑪麗亞·拉娜 Alexandra Maria Lara- Q. e9 d/ {6 H" [2 x- B: ?; Z
       埃利亞斯·穆巴里克 Elyas M'Barek
# x. T$ q9 t& g- J" Z' a       海納·勞特爾巴赫 Heiner Lauterbach
  W$ Q$ B0 j+ _0 P- d7 ]# L: |+ H/ ]" \2 }5 L& h( t. L: p! Q

  w# x7 J0 t% w/ d標  簽 德國 | 德國電影 | 二戰 | 庭審 | 歷史 | 23 | 2010s | 成片  d) M$ m$ F9 Y# \! V

3 q3 D1 j, a6 {2 V9 X  A, h簡  介  3 d% m$ _+ j/ o! e. T5 w6 M
' m) ?- h; P. ^" s8 Y. H. n. T9 L
  A young lawyer stumbles upon a vast conspiracy while investigating a brutal murder ysgou.cc case.
9 l" t+ ?/ m' T4 ^0 M
  1. Video
    , b' u, C) n; ^
  2. ID                                       : 1
    5 `! z3 ^5 N) Z6 D+ U3 \
  3. Format                                   : AVC
    ; F  l2 q; m' x% q, R- q
  4. Format/Info                              : Advanced Video Codec0 n; _) f: ~* [$ w
  5. Format profile                           : [email protected]
    0 S4 s+ I/ \4 @: M! M
  6. Format settings                          : CABAC / 5 Ref Frames
    # k. J+ R2 ]7 D$ C) `) N# c5 q
  7. Format settings, CABAC                   : Yes7 v. h) U0 i+ j& J, n1 V( l
  8. Format settings, Reference frames        : 5 frames, z( p  N" j$ s. |
  9. Codec ID                                 : V_MPEG4/ISO/AVC
    ) w# z) s6 m: ^( Y
  10. Duration                                 : 2 h 2 min  i+ M( p5 P3 M' @) T
  11. Bit rate                                 : 4 841 kb/s! x4 N. M2 S. d- y9 T. i
  12. Width                                    : 1 280 pixels$ G1 u4 k6 ~; E9 E- I1 S
  13. Height                                   : 536 pixels9 W9 w" L% I# P3 R: Q" ?5 t
  14. Display aspect ratio                     : 2.40:1
    2 a7 z% y5 q7 ?( H( q5 O
  15. Frame rate mode                          : Constant
    $ b1 l7 D+ U( c# W
  16. Frame rate                               : 24.000 FPS8 @5 E4 C# W4 e0 i/ \0 d3 a
  17. Color space                              : YUV) c3 u# W/ W0 {* e' L  Y
  18. Chroma subsampling                       : 4:2:0" ]* b8 I& E) J) y- i
  19. Bit depth                                : 8 bits: H1 |  w# h8 f* Z- q/ `+ B
  20. Scan type                                : Progressive; y7 l- @9 O: u7 R" ^5 K9 v
  21. Bits/(Pixel*Frame)                       : 0.294
    3 ]( {! P: M+ l2 J' l0 Y5 H+ K) N/ z
  22. Stream size                              : 4.15 GiB (76%)
    9 x4 Q2 `) }, V, p
  23. Writing library                          : x264 core 157 r2969 d4099dd
    / V- H$ R) G' {. _. r+ w
  24. Encoding settings                        : cabac=1 / ref=5 / deblock=1:0:0 / analyse=0x3:0x113 / me=umh / subme=8 / psy=1 / psy_rd=1.00:0.00 / mixed_ref=1 / me_range=16 / chroma_me=1 / trellis=2 / 8x8dct=1 / cqm=0 / deadzone=21,11 / fast_pskip=0 / chroma_qp_offset=-2 / threads=17 / lookahead_threads=2 / sliced_threads=0 / nr=0 / decimate=1 / interlaced=0 / bluray_compat=0 / constrained_intra=0 / bframes=3 / b_pyramid=2 / b_adapt=1 / b_bias=0 / direct=1 / weightb=1 / open_gop=0 / weightp=2 / keyint=250 / keyint_min=24 / scenecut=40 / intra_refresh=0 / rc_lookahead=50 / rc=2pass / mbtree=1 / bitrate=4841 / ratetol=1.0 / qcomp=0.60 / qpmin=0 / qpmax=69 / qpstep=4 / cplxblur=20.0 / qblur=0.5 / ip_ratio=1.40 / aq=1:1.00
    0 v$ {6 p9 {4 k$ f" K. h: J) r# i
  25. Default                                  : Yes( Q+ A6 v* R( v0 G! ?8 q) r* {
  26. Forced                                   : No. W8 `  z6 Z% o0 R$ j+ {: y; u
  27. 2 B1 T2 J. ?$ n; e7 n1 \
  28. Audio' ~, i* R' @9 z- E  l/ Z
  29. ID                                       : 2
    % ]- E/ `; m' d7 }% V+ @' |; e
  30. Format                                   : DTS
    5 @0 I1 o. U# g! Y& T
  31. Format/Info                              : Digital Theater Systems9 M! n$ ^) ?- M7 k
  32. Codec ID                                 : A_DTS, g' y" x/ Y) M/ E+ E! K
  33. Duration                                 : 2 h 2 min
    . k; C3 Z( G# O% m( n0 X$ w
  34. Bit rate mode                            : Constant
    6 A, \( h; Q: M& R; I/ q
  35. Bit rate                                 : 1 509 kb/s
    . Z5 r7 e3 `5 `7 G7 x0 Y4 x0 y* k$ d
  36. Channel(s)                               : 6 channels
    $ x$ V; Y* F- G. s9 K3 w
  37. Channel layout                           : C L R Ls Rs LFE. p% w+ t  ^9 m, [
  38. Sampling rate                            : 48.0 kHz( c7 p$ ]% K/ G1 V/ u( Z
  39. Frame rate                               : 93.750 FPS (512 SPF)
    " W% K: ^6 L* X$ K
  40. Bit depth                                : 24 bits
    0 J' K3 Z$ x2 m% d& {9 ?& I" G6 K
  41. Compression mode                         : Lossy' D9 v8 N6 k. H) v
  42. Stream size                              : 1.29 GiB (24%)
    : u+ m$ u0 M; F4 m/ F
  43. Language                                 : German
    : U3 ?0 C3 J$ [$ `, a
  44. Default                                  : Yes/ ^7 p% T$ U5 C3 C8 _
  45. Forced                                   : No& O5 l* f; S4 J$ e
  46. " ~3 G( u3 j  O
  47. Text
    / e) _7 t& J$ h2 g2 t" \
  48. ID                                       : 3
    % R! H9 t$ a6 |3 L  T4 T
  49. Format                                   : UTF-8- w" x2 ?: ^$ a3 T/ B
  50. Codec ID                                 : S_TEXT/UTF8
    ) f& p, G0 {1 \: I& q) ]
  51. Codec ID/Info                            : UTF-8 Plain Text
    . F0 B) U* j$ z+ j7 `  N( u
  52. Duration                                 : 1 h 54 min) W' }5 e. ^7 k8 J. B
  53. Bit rate                                 : 42 b/s" |" ^7 v3 w  ]4 r
  54. Count of elements                        : 955
    0 w* r/ }, h, Y2 J8 Z# T; k: G
  55. Stream size                              : 35.4 KiB (0%)
    1 l# q1 n& h6 ]3 a5 Y  _
  56. Language                                 : English" m! G1 o' ]3 D1 c7 F8 Y& D
  57. Default                                  : Yes$ o9 v8 A0 U3 ?* O' t9 |
  58. Forced                                   : Yes
    ) l; I9 A/ f* k, K% e2 v

  59. . m* T8 M! I- R8 D+ K* ]( U, j" t/ g
  60. Menu8 r# B5 G: s9 A5 u2 m" F
  61. 00:00:00.000                             : :Kapitel 01
    3 S4 G, ]6 e' J7 m  H2 y) ]( D
  62. 00:05:11.250                             : :Kapitel 02: M, I3 {, F0 G4 E+ i, G
  63. 00:13:40.417                             : :Kapitel 03: }: }) |# l5 ?( n
  64. 00:20:14.917                             : :Kapitel 04
    0 z8 q1 {( u% [0 k' _# Q
  65. 00:26:18.583                             : :Kapitel 05
    4 C5 k2 O1 [0 a  G
  66. 00:33:56.875                             : :Kapitel 069 ?& s$ q% Q5 a  P
  67. 00:40:25.000                             : :Kapitel 07
    ; _# e0 G3 A# v3 H; X3 I3 e
  68. 00:48:11.583                             : :Kapitel 08& }3 }$ [7 U' s
  69. 00:58:25.208                             : :Kapitel 092 k9 T& F5 _1 x8 {9 w( I; z
  70. 01:05:15.792                             : :Kapitel 10  R; V% O1 [. n" O
  71. 01:10:55.500                             : :Kapitel 11  i$ v" {2 [4 Q: l* B+ ]
  72. 01:20:01.458                             : :Kapitel 12* g1 G  j( G, j' j' O) `: o2 f  b  u1 _
  73. 01:28:08.667                             : :Kapitel 13% Z: Y" F( D- @: }$ o1 M/ K* ~1 p5 {
  74. 01:35:51.208                             : :Kapitel 144 ], [  u% K7 U7 K) O, K% c
  75. 01:43:44.958                             : :Kapitel 15
    & n' p) u$ y' o+ l! q7 u
  76. 01:50:53.292                             : :Kapitel 16+ T2 d6 L2 }( G  C0 J% |5 S
  77. 01:56:29.542                             : :Kapitel 17
復制代碼
) n/ O9 e, B( M! F8 ]
8 I$ e. M* [& s( W1 `
5 p7 ~$ A, k3 J1 j6 ~
2 `4 A$ K$ Z. V8 |, h9 h* K
/ I; }, N4 o8 N# B- m1 Z
" G1 {/ C3 e3 b1 @
+ J* A. s* r9 T
0 E. {* S* ~% n& f: Q5 K

# N) {7 M' q6 d4 ~, l9 }  ~3 m/ P( e
分享到:  QQ好友和群QQ好友和群
收藏收藏
VIP會員免費任意下載本站所有資源!---點擊開通
回復

使用道具 舉報

級別:領銜主演 Lv.6

注冊時間
2019-4-24
最后登錄
2019-10-11
聽眾
13
收聽
0
主題
0
藍光幣
136 枚
貢獻
0 點
沙發
發表于 半小時前 | 只看該作者
樓主發貼辛苦了,謝謝樓主分享!我覺得中國高清電影網是注冊對了!
VIP會員免費任意下載本站所有資源!---點擊開通
回復

使用道具 舉報

懶得打字嘛,點擊右側快捷回復 【右側內容,后臺自定義】
您需要登錄后才可以回帖 登錄 | 立即注冊

本版積分規則

QQ|Archiver|手機版|小黑屋| 中國高清網 |網站地圖

GMT+8, 2019-10-11 17:03 , Processed in 0.623283 second(s), 38 queries .

Powered by HDchina X3.4

Copyright 2017-2019©HDchina.All right reserved

返回頂部 聯系我們
必赢客时时彩群计划