查看: 80|回復: 0
打印 上一主題 下一主題

[8bit.SDR] 千尸屋3 3.from.Hell.2019.UNRATED.2160p.BluRay.x264.8bit.SDR.DTS-HD.MA.TrueHD.7.1-SWTYBLZ 58.04GB

[復制鏈接]

 成長值: 2780

級別:資源管理組

注冊時間
2017-10-20
最后登錄
2019-10-11
聽眾
1
收聽
0
主題
84382
藍光幣
54193 枚
貢獻
8739 點
跳轉到指定樓層
樓主


譯  名 千尸屋3 / Three From Hell / 恐怖三人組
片  名 3 from Hell
年  代 2019
產  地 美國
類  別 恐怖
語  言 英語
上映日期 2019-09-18(美國)
IMDb評分  6.6/10 from 1120 users
IMDb鏈接  http://www.imdb.com/title/tt8134742
豆瓣評分 0/10 from 0 users
豆瓣鏈接 https://movie.douban.com/subject/30254678/
片  長 111分鐘
導  演 羅布·贊比 Rob Zombie
編  劇 羅布·贊比 Rob Zombie
主  演 雪莉·穆恩·贊比 Sheri Moon Zombie
       希德·黑格 Sid Haig
       比爾·莫斯利 Bill Moseley
       埃米里奧·瑞弗拉 Emilio Rivera
       丹尼·特雷霍 Danny Trejo
       克林特·霍華德 Clint Howard
       理查德·布雷克 Richard Brake
       丹尼爾·洛巴克 Daniel Roebuck
       杰弗里·丹尼爾·菲利普斯 Jeffrey Daniel Phillips
       戴維·尤里 David Ury
       迪·沃倫斯 Dee Wallace
       多特-瑪麗·瓊斯 Dot-Marie Jones
       西恩·瓦蘭 Sean Whalen
       理查德·里爾 Richard Riehle
       馬修·維利希 Matthew Willig
       西爾維婭·杰弗里斯 Sylvia Jefferies
       理查德·埃德森 Richard Edson
       盧辛達·珍妮 Lucinda Jenney
       史蒂芬·邁克爾·克扎達 Steven Michael Quezada
       克里斯托弗·B·鄧肯 Christopher B. Duncan
       小比爾·奧伯斯特 Bill Oberst Jr.
       比利·布萊爾 Billy Blair
       杜恩·惠特克 Duane Whitaker
       馬里亞諾·門多薩 Mariano Mendoza
       簡·霍格 Jan Hoag
       尼克·科尼特 Nic Cornett
       Tom Papa
       Pancho Moler
       Austin Stoker
       Chastity Bono
       Stacie Greenwell
       Rian Bishop


標  簽 恐怖 | 美國 | 羅布·贊比 | RobZombie | 美國電影 | 電影 | 犯罪 | 美國

簡  介  

  Sequel to The Devil's Rejects.
  1. Video
  2. ID                                       : 1
  3. Format                                   : AVC
  4. Format/Info                              : Advanced Video Codec
  5. Format profile                           : [email protected]
  6. Format settings                          : CABAC / 5 Ref Frames
  7. Format settings, CABAC                   : Yes
  8. Format settings, Reference frames        : 5 frames
  9. Codec ID                                 : V_MPEG4/ISO/AVC
  10. Duration                                 : 1 h 55 min
  11. Bit rate                                 : 64.2 Mb/s
  12. Width                                    : 3 840 pixels
  13. Height                                   : 2 076 pixels
  14. Display aspect ratio                     : 1.85:1
  15. Frame rate mode                          : Constant
  16. Frame rate                               : 23.976 (24000/1001) FPS
  17. Color space                              : YUV
  18. Chroma subsampling                       : 4:2:0
  19. Bit depth                                : 8 bits
  20. Scan type                                : Progressive
  21. Bits/(Pixel*Frame)                       : 0.336
  22. Stream size                              : 51.9 GiB (90%)
  23. Title                                    : 3.from.Hell.2019.UNRATED.2160p.BluRay.x264.8bit.SDR.DTS-HD.MA.TrueHD.7.1-SWTYBLZ
  24. Writing library                          : x264 core 157 r2935 545de2f
  25. Encoding settings                        : cabac=1 / ref=5 / deblock=1:-1:-1 / analyse=0x3:0x113 / me=umh / subme=10 / psy=1 / psy_rd=1.00:0.15 / mixed_ref=1 / me_range=48 / chroma_me=1 / trellis=2 / 8x8dct=1 / cqm=0 / deadzone=21,11 / fast_pskip=1 / chroma_qp_offset=-3 / threads=48 / lookahead_threads=4 / sliced_threads=0 / nr=0 / decimate=0 / interlaced=0 / bluray_compat=0 / constrained_intra=0 / bframes=3 / b_pyramid=2 / b_adapt=2 / b_bias=0 / direct=3 / weightb=1 / open_gop=0 / weightp=2 / keyint=250 / keyint_min=23 / scenecut=40 / intra_refresh=0 / rc_lookahead=50 / rc=crf / mbtree=1 / crf=18.0 / qcomp=0.60 / qpmin=0 / qpmax=69 / qpstep=4 / ip_ratio=1.40 / aq=1:1.00
  26. Default                                  : Yes
  27. Forced                                   : No

  28. Audio #1
  29. ID                                       : 2
  30. Format                                   : MLP FBA
  31. Format/Info                              : Meridian Lossless Packing FBA
  32. Commercial name                          : Dolby TrueHD
  33. Codec ID                                 : A_TRUEHD
  34. Duration                                 : 1 h 55 min
  35. Bit rate mode                            : Variable
  36. Bit rate                                 : 2 248 kb/s
  37. Maximum bit rate                         : 4 176 kb/s
  38. Channel(s)                               : 8 channels
  39. Channel layout                           : L R C LFE Ls Rs Lb Rb
  40. Sampling rate                            : 48.0 kHz
  41. Frame rate                               : 1 200.000 FPS (40 SPF)
  42. Compression mode                         : Lossless
  43. Stream size                              : 1.82 GiB (3%)
  44. Title                                    : 3.from.Hell.2019.UNRATED.2160p.BluRay.x264.8bit.SDR.DTS-HD.MA.TrueHD.7.1-SWTYBLZ
  45. Language                                 : English
  46. Default                                  : Yes
  47. Forced                                   : No

  48. Audio #2
  49. ID                                       : 3
  50. Format                                   : DTS XLL
  51. Format/Info                              : Digital Theater Systems
  52. Commercial name                          : DTS-HD Master Audio
  53. Codec ID                                 : A_DTS
  54. Duration                                 : 1 h 55 min
  55. Bit rate mode                            : Variable
  56. Bit rate                                 : 4 258 kb/s
  57. Channel(s)                               : 8 channels
  58. Channel layout                           : C L R LFE Lb Rb Lss Rss
  59. Sampling rate                            : 48.0 kHz
  60. Frame rate                               : 93.750 FPS (512 SPF)
  61. Bit depth                                : 24 bits
  62. Compression mode                         : Lossless
  63. Stream size                              : 3.44 GiB (6%)
  64. Title                                    : 3.from.Hell.2019.UNRATED.2160p.BluRay.x264.8bit.SDR.DTS-HD.MA.TrueHD.7.1-SWTYBLZ
  65. Language                                 : English
  66. Default                                  : No
  67. Forced                                   : No

  68. Audio #3
  69. ID                                       : 4
  70. Format                                   : AC-3
  71. Format/Info                              : Audio Coding 3
  72. Commercial name                          : Dolby Digital
  73. Codec ID                                 : A_AC3
  74. Duration                                 : 1 h 55 min
  75. Bit rate mode                            : Constant
  76. Bit rate                                 : 640 kb/s
  77. Channel(s)                               : 6 channels
  78. Channel layout                           : L R C LFE Ls Rs
  79. Sampling rate                            : 48.0 kHz
  80. Frame rate                               : 31.250 FPS (1536 SPF)
  81. Bit depth                                : 16 bits
  82. Compression mode                         : Lossy
  83. Stream size                              : 530 MiB (1%)
  84. Title                                    : 3.from.Hell.2019.UNRATED.2160p.BluRay.x264.8bit.SDR.DTS-HD.MA.TrueHD.7.1-SWTYBLZ
  85. Language                                 : English
  86. Service kind                             : Complete Main
  87. Default                                  : No
  88. Forced                                   : No

  89. Text #1
  90. ID                                       : 5
  91. Format                                   : UTF-8
  92. Codec ID                                 : S_TEXT/UTF8
  93. Codec ID/Info                            : UTF-8 Plain Text
  94. Duration                                 : 1 h 46 min
  95. Bit rate                                 : 51 b/s
  96. Count of elements                        : 1361
  97. Stream size                              : 40.4 KiB (0%)
  98. Title                                    : English-SRT
  99. Language                                 : English
  100. Default                                  : Yes
  101. Forced                                   : No

  102. Text #2
  103. ID                                       : 6
  104. Format                                   : PGS
  105. Muxing mode                              : zlib
  106. Codec ID                                 : S_HDMV/PGS
  107. Codec ID/Info                            : Picture based subtitle format used on BDs/HD-DVDs
  108. Duration                                 : 1 h 52 min
  109. Bit rate                                 : 40.0 kb/s
  110. Count of elements                        : 3224
  111. Stream size                              : 32.2 MiB (0%)
  112. Title                                    : English-PGS
  113. Language                                 : English
  114. Default                                  : No
  115. Forced                                   : No

  116. Text #3
  117. ID                                       : 7
  118. Format                                   : PGS
  119. Muxing mode                              : zlib
  120. Codec ID                                 : S_HDMV/PGS
  121. Codec ID/Info                            : Picture based subtitle format used on BDs/HD-DVDs
  122. Duration                                 : 1 h 46 min
  123. Bit rate                                 : 35.3 kb/s
  124. Count of elements                        : 2784
  125. Stream size                              : 26.9 MiB (0%)
  126. Title                                    : Spanish-PGS
  127. Language                                 : Spanish
  128. Default                                  : No
  129. Forced                                   : No

  130. Menu
  131. 00:00:00.000                             : en:Chapter 01
  132. 00:06:18.920                             : en:Chapter 02
  133. 00:13:16.838                             : en:Chapter 03
  134. 00:21:29.538                             : en:Chapter 04
  135. 00:28:25.287                             : en:Chapter 05
  136. 00:33:30.050                             : en:Chapter 06
  137. 00:42:12.739                             : en:Chapter 07
  138. 00:48:23.150                             : en:Chapter 08
  139. 00:55:16.188                             : en:Chapter 09
  140. 01:05:21.167                             : en:Chapter 10
  141. 01:10:13.835                             : en:Chapter 11
  142. 01:21:00.939                             : en:Chapter 12
  143. 01:25:16.111                             : en:Chapter 13
  144. 01:31:16.262                             : en:Chapter 14
  145. 01:39:35.344                             : en:Chapter 15
  146. 01:46:39.476                             : en:Chapter 16
復制代碼









本帖隱藏的下載地址需要VIP會員才可瀏覽,您需要升級才可瀏覽,點擊這里升級VIP
分享到:  QQ好友和群QQ好友和群
收藏收藏
VIP會員免費任意下載本站所有資源!---點擊開通
回復

使用道具 舉報

懶得打字嘛,點擊右側快捷回復 【右側內容,后臺自定義】
您需要登錄后才可以回帖 登錄 | 立即注冊

本版積分規則

QQ|Archiver|手機版|小黑屋| 中國高清網 |網站地圖

GMT+8, 2019-10-11 16:58 , Processed in 0.335295 second(s), 38 queries .

Powered by HDchina X3.4

Copyright 2017-2019©HDchina.All right reserved

返回頂部 聯系我們
必赢客时时彩群计划