查看: 69|回復: 1
打印 上一主題 下一主題

[10bit.SDR] 千尸屋3 3.from.Hell.2019.UNRATED.2160p.BluRay.x265.10bit.SDR.DTS-HD.MA.TrueHD.7.1-S

[復制鏈接]

 成長值: 2780

級別:資源管理組

注冊時間
2017-10-20
最后登錄
2019-10-11
聽眾
1
收聽
0
主題
84387
藍光幣
54193 枚
貢獻
8744 點
跳轉到指定樓層
樓主


譯  名 千尸屋3 / Three From Hell / 恐怖三人組
片  名 3 from Hell
年  代 2019
產  地 美國
類  別 恐怖
語  言 英語
上映日期 2019-09-18(美國)
IMDb評分  6.6/10 from 1120 users
IMDb鏈接  http://www.imdb.com/title/tt8134742
豆瓣評分 0/10 from 0 users
豆瓣鏈接 https://movie.douban.com/subject/30254678/
片  長 111分鐘
導  演 羅布·贊比 Rob Zombie
編  劇 羅布·贊比 Rob Zombie
主  演 雪莉·穆恩·贊比 Sheri Moon Zombie
       希德·黑格 Sid Haig
       比爾·莫斯利 Bill Moseley
       埃米里奧·瑞弗拉 Emilio Rivera
       丹尼·特雷霍 Danny Trejo
       克林特·霍華德 Clint Howard
       理查德·布雷克 Richard Brake
       丹尼爾·洛巴克 Daniel Roebuck
       杰弗里·丹尼爾·菲利普斯 Jeffrey Daniel Phillips
       戴維·尤里 David Ury
       迪·沃倫斯 Dee Wallace
       多特-瑪麗·瓊斯 Dot-Marie Jones
       西恩·瓦蘭 Sean Whalen
       理查德·里爾 Richard Riehle
       馬修·維利希 Matthew Willig
       西爾維婭·杰弗里斯 Sylvia Jefferies
       理查德·埃德森 Richard Edson
       盧辛達·珍妮 Lucinda Jenney
       史蒂芬·邁克爾·克扎達 Steven Michael Quezada
       克里斯托弗·B·鄧肯 Christopher B. Duncan
       小比爾·奧伯斯特 Bill Oberst Jr.
       比利·布萊爾 Billy Blair
       杜恩·惠特克 Duane Whitaker
       馬里亞諾·門多薩 Mariano Mendoza
       簡·霍格 Jan Hoag
       尼克·科尼特 Nic Cornett
       Tom Papa
       Pancho Moler
       Austin Stoker
       Chastity Bono
       Stacie Greenwell
       Rian Bishop


標  簽 恐怖 | 美國 | 羅布·贊比 | RobZombie | 美國電影 | 電影 | 犯罪 | 美國

簡  介  

  Sequel to The Devil's Rejects.
  1. Video
  2. ID                                       : 1
  3. Format                                   : HEVC
  4. Format/Info                              : High Efficiency Video Coding
  5. Format profile                           : Main [email protected]@High
  6. Codec ID                                 : V_MPEGH/ISO/HEVC
  7. Duration                                 : 1 h 55 min
  8. Bit rate                                 : 53.4 Mb/s
  9. Width                                    : 3 840 pixels
  10. Height                                   : 2 076 pixels
  11. Display aspect ratio                     : 1.85:1
  12. Frame rate mode                          : Constant
  13. Frame rate                               : 23.976 (24000/1001) FPS
  14. Color space                              : YUV
  15. Chroma subsampling                       : 4:2:0
  16. Bit depth                                : 10 bits
  17. Bits/(Pixel*Frame)                       : 0.279
  18. Stream size                              : 43.2 GiB (88%)
  19. Title                                    : 3.from.Hell.2019.UNRATED.2160p.BluRay.x265.10bit.SDR.DTS-HD.MA.TrueHD.7.1-SWTYBLZ
  20. Writing library                          : x265 3.0ed72af837053:[Windows][GCC 8.2.0][64 bit] 10bit
  21. Encoding settings                        : cpuid=1111039 / frame-threads=16 / numa-pools=44,44 / wpp / no-pmode / no-pme / no-psnr / no-ssim / log-level=2 / input-csp=1 / input-res=3840x2076 / interlace=0 / total-frames=166584 / level-idc=51 / high-tier=1 / uhd-bd=0 / ref=3 / no-allow-non-conformance / repeat-headers / annexb / aud / hrd / info / hash=0 / no-temporal-layers / no-open-gop / min-keyint=1 / keyint=24 / gop-lookahead=0 / bframes=4 / b-adapt=2 / b-pyramid / bframe-bias=0 / rc-lookahead=25 / lookahead-slices=4 / scenecut=40 / radl=0 / no-splice / no-intra-refresh / ctu=64 / min-cu-size=8 / no-rect / no-amp / max-tu-size=32 / tu-inter-depth=1 / tu-intra-depth=1 / limit-tu=0 / rdoq-level=0 / dynamic-rd=0.00 / no-ssim-rd / signhide / no-tskip / nr-intra=0 / nr-inter=0 / no-constrained-intra / strong-intra-smoothing / max-merge=2 / limit-refs=3 / no-limit-modes / me=1 / subme=2 / merange=57 / temporal-mvp / weightp / no-weightb / no-analyze-src-pics / deblock=0:0 / no-sao / no-sao-non-deblock / rd=3 / no-early-skip / rskip / no-fast-intra / no-tskip-fast / no-cu-lossless / no-b-intra / no-splitrd-skip / rdpenalty=0 / psy-rd=2.00 / psy-rdoq=0.00 / no-rd-refine / no-lossless / cbqpoffs=0 / crqpoffs=0 / rc=crf / crf=16.0 / qcomp=0.60 / qpstep=4 / stats-write=0 / stats-read=0 / vbv-maxrate=160000 / vbv-bufsize=160000 / vbv-init=0.9 / crf-max=0.0 / crf-min=0.0 / ipratio=1.40 / pbratio=1.30 / aq-mode=1 / aq-strength=1.00 / cutree / zone-count=0 / no-strict-cbr / qg-size=32 / no-rc-grain / qpmax=69 / qpmin=0 / no-const-vbv / sar=1 / overscan=0 / videoformat=5 / range=0 / colorprim=2 / transfer=2 / colormatrix=2 / chromaloc=0 / display-window=0 / max-cll=0,0 / min-luma=0 / max-luma=1023 / log2-max-poc-lsb=8 / vui-timing-info / vui-hrd-info / slices=1 / opt-qp-pps / opt-ref-list-length-pps / no-multi-pass-opt-rps / scenecut-bias=0.05 / no-opt-cu-delta-qp / no-aq-motion / no-hdr / no-hdr-opt / no-dhdr10-opt / no-idr-recovery-sei / analysis-reuse-level=5 / scale-factor=0 / refine-intra=0 / refine-inter=0 / refine-mv=0 / refine-ctu-distortion=0 / no-limit-sao / ctu-info=0 / no-lowpass-dct / refine-analysis-type=0 / copy-pic=1 / max-ausize-factor=1.0 / no-dynamic-refine / no-single-sei / no-hevc-aq / qp-adaptation-range=1.00
  22. Default                                  : Yes
  23. Forced                                   : No

  24. Audio #1
  25. ID                                       : 2
  26. Format                                   : MLP FBA
  27. Format/Info                              : Meridian Lossless Packing FBA
  28. Commercial name                          : Dolby TrueHD
  29. Codec ID                                 : A_TRUEHD
  30. Duration                                 : 1 h 55 min
  31. Bit rate mode                            : Variable
  32. Bit rate                                 : 2 248 kb/s
  33. Maximum bit rate                         : 4 176 kb/s
  34. Channel(s)                               : 8 channels
  35. Channel layout                           : L R C LFE Ls Rs Lb Rb
  36. Sampling rate                            : 48.0 kHz
  37. Frame rate                               : 1 200.000 FPS (40 SPF)
  38. Compression mode                         : Lossless
  39. Stream size                              : 1.82 GiB (4%)
  40. Title                                    : 3.from.Hell.2019.UNRATED.2160p.BluRay.x265.10bit.SDR.DTS-HD.MA.TrueHD.7.1-SWTYBLZ
  41. Language                                 : English
  42. Default                                  : Yes
  43. Forced                                   : No

  44. Audio #2
  45. ID                                       : 3
  46. Format                                   : DTS XLL
  47. Format/Info                              : Digital Theater Systems
  48. Commercial name                          : DTS-HD Master Audio
  49. Codec ID                                 : A_DTS
  50. Duration                                 : 1 h 55 min
  51. Bit rate mode                            : Variable
  52. Bit rate                                 : 4 258 kb/s
  53. Channel(s)                               : 8 channels
  54. Channel layout                           : C L R LFE Lb Rb Lss Rss
  55. Sampling rate                            : 48.0 kHz
  56. Frame rate                               : 93.750 FPS (512 SPF)
  57. Bit depth                                : 24 bits
  58. Compression mode                         : Lossless
  59. Stream size                              : 3.44 GiB (7%)
  60. Title                                    : 3.from.Hell.2019.UNRATED.2160p.BluRay.x265.10bit.SDR.DTS-HD.MA.TrueHD.7.1-SWTYBLZ
  61. Language                                 : English
  62. Default                                  : No
  63. Forced                                   : No

  64. Audio #3
  65. ID                                       : 4
  66. Format                                   : AC-3
  67. Format/Info                              : Audio Coding 3
  68. Commercial name                          : Dolby Digital
  69. Codec ID                                 : A_AC3
  70. Duration                                 : 1 h 55 min
  71. Bit rate mode                            : Constant
  72. Bit rate                                 : 640 kb/s
  73. Channel(s)                               : 6 channels
  74. Channel layout                           : L R C LFE Ls Rs
  75. Sampling rate                            : 48.0 kHz
  76. Frame rate                               : 31.250 FPS (1536 SPF)
  77. Bit depth                                : 16 bits
  78. Compression mode                         : Lossy
  79. Stream size                              : 530 MiB (1%)
  80. Title                                    : 3.from.Hell.2019.UNRATED.2160p.BluRay.x265.10bit.SDR.DTS-HD.MA.TrueHD.7.1-SWTYBLZ
  81. Language                                 : English
  82. Service kind                             : Complete Main
  83. Default                                  : No
  84. Forced                                   : No

  85. Text #1
  86. ID                                       : 5
  87. Format                                   : UTF-8
  88. Codec ID                                 : S_TEXT/UTF8
  89. Codec ID/Info                            : UTF-8 Plain Text
  90. Duration                                 : 1 h 46 min
  91. Bit rate                                 : 51 b/s
  92. Count of elements                        : 1361
  93. Stream size                              : 40.4 KiB (0%)
  94. Title                                    : English-SRT
  95. Language                                 : English
  96. Default                                  : Yes
  97. Forced                                   : No

  98. Text #2
  99. ID                                       : 6
  100. Format                                   : PGS
  101. Muxing mode                              : zlib
  102. Codec ID                                 : S_HDMV/PGS
  103. Codec ID/Info                            : Picture based subtitle format used on BDs/HD-DVDs
  104. Duration                                 : 1 h 52 min
  105. Bit rate                                 : 40.0 kb/s
  106. Count of elements                        : 3224
  107. Stream size                              : 32.2 MiB (0%)
  108. Title                                    : English-PGS
  109. Language                                 : English
  110. Default                                  : No
  111. Forced                                   : No

  112. Text #3
  113. ID                                       : 7
  114. Format                                   : PGS
  115. Muxing mode                              : zlib
  116. Codec ID                                 : S_HDMV/PGS
  117. Codec ID/Info                            : Picture based subtitle format used on BDs/HD-DVDs
  118. Duration                                 : 1 h 46 min
  119. Bit rate                                 : 35.3 kb/s
  120. Count of elements                        : 2784
  121. Stream size                              : 26.9 MiB (0%)
  122. Title                                    : Spanish-PGS
  123. Language                                 : Spanish
  124. Default                                  : No
  125. Forced                                   : No

  126. Menu
  127. 00:00:00.000                             : en:Chapter 01
  128. 00:06:18.920                             : en:Chapter 02
  129. 00:13:16.838                             : en:Chapter 03
  130. 00:21:29.538                             : en:Chapter 04
  131. 00:28:25.287                             : en:Chapter 05
  132. 00:33:30.050                             : en:Chapter 06
  133. 00:42:12.739                             : en:Chapter 07
  134. 00:48:23.150                             : en:Chapter 08
  135. 00:55:16.188                             : en:Chapter 09
  136. 01:05:21.167                             : en:Chapter 10
  137. 01:10:13.835                             : en:Chapter 11
  138. 01:21:00.939                             : en:Chapter 12
  139. 01:25:16.111                             : en:Chapter 13
  140. 01:31:16.262                             : en:Chapter 14
  141. 01:39:35.344                             : en:Chapter 15
  142. 01:46:39.476                             : en:Chapter 16
復制代碼









本帖隱藏的下載地址需要VIP會員才可瀏覽,您需要升級才可瀏覽,點擊這里升級VIP
分享到:  QQ好友和群QQ好友和群
收藏收藏
VIP會員免費任意下載本站所有資源!---點擊開通
回復

使用道具 舉報

級別:領銜主演 Lv.6

注冊時間
2019-4-24
最后登錄
2019-10-11
聽眾
13
收聽
0
主題
0
藍光幣
136 枚
貢獻
0 點
沙發
發表于 3 天前 | 只看該作者
樓主發貼辛苦了,謝謝樓主分享!我覺得中國高清電影網是注冊對了!
VIP會員免費任意下載本站所有資源!---點擊開通
回復

使用道具 舉報

懶得打字嘛,點擊右側快捷回復 【右側內容,后臺自定義】
您需要登錄后才可以回帖 登錄 | 立即注冊

本版積分規則

QQ|Archiver|手機版|小黑屋| 中國高清網 |網站地圖

GMT+8, 2019-10-11 17:07 , Processed in 0.496064 second(s), 38 queries .

Powered by HDchina X3.4

Copyright 2017-2019©HDchina.All right reserved

返回頂部 聯系我們
必赢客时时彩群计划