查看: 49|回復: 1
打印 上一主題 下一主題

[REMUX.HEVC] 千尸屋3 3.from.Hell.2019.UNRATED.2160p.BluRay.REMUX.HEVC.DTS-HD.MA.TrueHD.7.1-FGT 65.47GB

[復制鏈接]

 成長值: 2780

級別:資源管理組

注冊時間
2017-10-20
最后登錄
2019-10-11
聽眾
1
收聽
0
主題
84386
藍光幣
54193 枚
貢獻
8743 點
跳轉到指定樓層
樓主


譯  名 千尸屋3 / Three From Hell / 恐怖三人組
片  名 3 from Hell
年  代 2019
產  地 美國
類  別 恐怖
語  言 英語
上映日期 2019-09-18(美國)
IMDb評分  6.6/10 from 1120 users
IMDb鏈接  http://www.imdb.com/title/tt8134742
豆瓣評分 0/10 from 0 users
豆瓣鏈接 https://movie.douban.com/subject/30254678/
片  長 111分鐘
導  演 羅布·贊比 Rob Zombie
編  劇 羅布·贊比 Rob Zombie
主  演 雪莉·穆恩·贊比 Sheri Moon Zombie
       希德·黑格 Sid Haig
       比爾·莫斯利 Bill Moseley
       埃米里奧·瑞弗拉 Emilio Rivera
       丹尼·特雷霍 Danny Trejo
       克林特·霍華德 Clint Howard
       理查德·布雷克 Richard Brake
       丹尼爾·洛巴克 Daniel Roebuck
       杰弗里·丹尼爾·菲利普斯 Jeffrey Daniel Phillips
       戴維·尤里 David Ury
       迪·沃倫斯 Dee Wallace
       多特-瑪麗·瓊斯 Dot-Marie Jones
       西恩·瓦蘭 Sean Whalen
       理查德·里爾 Richard Riehle
       馬修·維利希 Matthew Willig
       西爾維婭·杰弗里斯 Sylvia Jefferies
       理查德·埃德森 Richard Edson
       盧辛達·珍妮 Lucinda Jenney
       史蒂芬·邁克爾·克扎達 Steven Michael Quezada
       克里斯托弗·B·鄧肯 Christopher B. Duncan
       小比爾·奧伯斯特 Bill Oberst Jr.
       比利·布萊爾 Billy Blair
       杜恩·惠特克 Duane Whitaker
       馬里亞諾·門多薩 Mariano Mendoza
       簡·霍格 Jan Hoag
       尼克·科尼特 Nic Cornett
       Tom Papa
       Pancho Moler
       Austin Stoker
       Chastity Bono
       Stacie Greenwell
       Rian Bishop


標  簽 恐怖 | 美國 | 羅布·贊比 | RobZombie | 美國電影 | 電影 | 犯罪 | 美國

簡  介  

  Sequel to The Devil's Rejects.
  1. Video
  2. ID                                       : 1
  3. Format                                   : HEVC
  4. Format/Info                              : High Efficiency Video Coding
  5. Format profile                           : Main [email protected]@High
  6. HDR format                               : SMPTE ST 2086, HDR10 compatible
  7. Codec ID                                 : V_MPEGH/ISO/HEVC
  8. Duration                                 : 1 h 55 min
  9. Bit rate                                 : 73.5 Mb/s
  10. Width                                    : 3 840 pixels
  11. Height                                   : 2 160 pixels
  12. Display aspect ratio                     : 16:9
  13. Frame rate mode                          : Constant
  14. Frame rate                               : 23.976 (24000/1001) FPS
  15. Color space                              : YUV
  16. Chroma subsampling                       : 4:2:0 (Type 2)
  17. Bit depth                                : 10 bits
  18. Bits/(Pixel*Frame)                       : 0.370
  19. Stream size                              : 59.4 GiB (91%)
  20. Title                                    : 3.from.Hell.2019.UNRATED.2160p.BluRay.REMUX.HEVC.DTS-HD.MA.TrueHD.7.1-FGT
  21. Language                                 : English
  22. Default                                  : No
  23. Forced                                   : No
  24. Color range                              : Limited
  25. Color primaries                          : BT.2020
  26. Transfer characteristics                 : PQ
  27. Matrix coefficients                      : BT.2020 non-constant
  28. Mastering display color primaries        : BT.2020
  29. Mastering display luminance              : min: 0.0001 cd/m2, max: 1000 cd/m2
  30. Maximum Content Light Level              : 962 cd/m2
  31. Maximum Frame-Average Light Level        : 885 cd/m2

  32. Audio #1
  33. ID                                       : 2
  34. Format                                   : MLP FBA
  35. Format/Info                              : Meridian Lossless Packing FBA
  36. Commercial name                          : Dolby TrueHD
  37. Codec ID                                 : A_TRUEHD
  38. Duration                                 : 1 h 55 min
  39. Bit rate mode                            : Variable
  40. Bit rate                                 : 2 248 kb/s
  41. Maximum bit rate                         : 4 176 kb/s
  42. Channel(s)                               : 8 channels
  43. Channel layout                           : L R C LFE Ls Rs Lb Rb
  44. Sampling rate                            : 48.0 kHz
  45. Frame rate                               : 1 200.000 FPS (40 SPF)
  46. Compression mode                         : Lossless
  47. Stream size                              : 1.82 GiB (3%)
  48. Title                                    : 3.from.Hell.2019.UNRATED.2160p.BluRay.REMUX.HEVC.DTS-HD.MA.TrueHD.7.1-FGT
  49. Language                                 : English
  50. Default                                  : Yes
  51. Forced                                   : No

  52. Audio #2
  53. ID                                       : 3
  54. Format                                   : DTS XLL
  55. Format/Info                              : Digital Theater Systems
  56. Commercial name                          : DTS-HD Master Audio
  57. Codec ID                                 : A_DTS
  58. Duration                                 : 1 h 55 min
  59. Bit rate mode                            : Variable
  60. Bit rate                                 : 4 258 kb/s
  61. Channel(s)                               : 8 channels
  62. Channel layout                           : C L R LFE Lb Rb Lss Rss
  63. Sampling rate                            : 48.0 kHz
  64. Frame rate                               : 93.750 FPS (512 SPF)
  65. Bit depth                                : 24 bits
  66. Compression mode                         : Lossless
  67. Stream size                              : 3.44 GiB (5%)
  68. Title                                    : 3.from.Hell.2019.UNRATED.2160p.BluRay.REMUX.HEVC.DTS-HD.MA.TrueHD.7.1-FGT
  69. Language                                 : English
  70. Default                                  : No
  71. Forced                                   : No

  72. Audio #3
  73. ID                                       : 4
  74. Format                                   : AC-3
  75. Format/Info                              : Audio Coding 3
  76. Commercial name                          : Dolby Digital
  77. Codec ID                                 : A_AC3
  78. Duration                                 : 1 h 55 min
  79. Bit rate mode                            : Constant
  80. Bit rate                                 : 640 kb/s
  81. Channel(s)                               : 6 channels
  82. Channel layout                           : L R C LFE Ls Rs
  83. Sampling rate                            : 48.0 kHz
  84. Frame rate                               : 31.250 FPS (1536 SPF)
  85. Bit depth                                : 16 bits
  86. Compression mode                         : Lossy
  87. Stream size                              : 530 MiB (1%)
  88. Title                                    : 3.from.Hell.2019.UNRATED.2160p.BluRay.REMUX.HEVC.DTS-HD.MA.TrueHD.7.1-FGT
  89. Language                                 : English
  90. Service kind                             : Complete Main
  91. Default                                  : No
  92. Forced                                   : No

  93. Audio #4
  94. ID                                       : 5
  95. Format                                   : AC-3
  96. Format/Info                              : Audio Coding 3
  97. Commercial name                          : Dolby Digital
  98. Codec ID                                 : A_AC3
  99. Duration                                 : 1 h 55 min
  100. Bit rate mode                            : Constant
  101. Bit rate                                 : 192 kb/s
  102. Channel(s)                               : 2 channels
  103. Channel layout                           : L R
  104. Sampling rate                            : 48.0 kHz
  105. Frame rate                               : 31.250 FPS (1536 SPF)
  106. Bit depth                                : 16 bits
  107. Compression mode                         : Lossy
  108. Stream size                              : 159 MiB (0%)
  109. Title                                    : 3.from.Hell.2019.UNRATED.2160p.BluRay.REMUX.HEVC.DTS-HD.MA.TrueHD.7.1-FGT
  110. Language                                 : English
  111. Service kind                             : Complete Main
  112. Default                                  : No
  113. Forced                                   : No

  114. Text #1
  115. ID                                       : 6
  116. Format                                   : UTF-8
  117. Codec ID                                 : S_TEXT/UTF8
  118. Codec ID/Info                            : UTF-8 Plain Text
  119. Duration                                 : 1 h 46 min
  120. Bit rate                                 : 51 b/s
  121. Count of elements                        : 1361
  122. Stream size                              : 40.4 KiB (0%)
  123. Title                                    : English-SRT
  124. Language                                 : English
  125. Default                                  : Yes
  126. Forced                                   : No

  127. Text #2
  128. ID                                       : 7
  129. Format                                   : PGS
  130. Muxing mode                              : zlib
  131. Codec ID                                 : S_HDMV/PGS
  132. Codec ID/Info                            : Picture based subtitle format used on BDs/HD-DVDs
  133. Duration                                 : 1 h 52 min
  134. Bit rate                                 : 40.0 kb/s
  135. Count of elements                        : 3224
  136. Stream size                              : 32.2 MiB (0%)
  137. Title                                    : English-PGS
  138. Language                                 : English
  139. Default                                  : No
  140. Forced                                   : No

  141. Text #3
  142. ID                                       : 8
  143. Format                                   : PGS
  144. Muxing mode                              : zlib
  145. Codec ID                                 : S_HDMV/PGS
  146. Codec ID/Info                            : Picture based subtitle format used on BDs/HD-DVDs
  147. Duration                                 : 1 h 46 min
  148. Bit rate                                 : 35.3 kb/s
  149. Count of elements                        : 2784
  150. Stream size                              : 26.9 MiB (0%)
  151. Title                                    : Spanish-PGS
  152. Language                                 : Spanish
  153. Default                                  : No
  154. Forced                                   : No

  155. Menu
  156. 00:00:00.000                             : en:Chapter 01
  157. 00:06:18.920                             : en:Chapter 02
  158. 00:13:16.837                             : en:Chapter 03
  159. 00:21:29.538                             : en:Chapter 04
  160. 00:28:25.036                             : en:Chapter 05
  161. 00:33:30.049                             : en:Chapter 06
  162. 00:42:12.738                             : en:Chapter 07
  163. 00:48:22.858                             : en:Chapter 08
  164. 00:55:16.604                             : en:Chapter 09
  165. 01:05:21.334                             : en:Chapter 10
  166. 01:10:13.792                             : en:Chapter 11
  167. 01:21:01.064                             : en:Chapter 12
  168. 01:25:16.111                             : en:Chapter 13
  169. 01:31:16.262                             : en:Chapter 14
  170. 01:39:35.135                             : en:Chapter 15
  171. 01:46:39.476                             : en:Chapter 16
復制代碼









本帖隱藏的下載地址需要VIP會員才可瀏覽,您需要升級才可瀏覽,點擊這里升級VIP
分享到:  QQ好友和群QQ好友和群
收藏收藏
VIP會員免費任意下載本站所有資源!---點擊開通
回復

使用道具 舉報

級別:領銜主演 Lv.6

注冊時間
2019-4-24
最后登錄
2019-10-11
聽眾
13
收聽
0
主題
0
藍光幣
136 枚
貢獻
0 點
沙發
發表于 3 天前 | 只看該作者
樓主發貼辛苦了,謝謝樓主分享!我覺得中國高清電影網是注冊對了!
VIP會員免費任意下載本站所有資源!---點擊開通
回復

使用道具 舉報

懶得打字嘛,點擊右側快捷回復 【右側內容,后臺自定義】
您需要登錄后才可以回帖 登錄 | 立即注冊

本版積分規則

QQ|Archiver|手機版|小黑屋| 中國高清網 |網站地圖

GMT+8, 2019-10-11 17:07 , Processed in 0.579491 second(s), 38 queries .

Powered by HDchina X3.4

Copyright 2017-2019©HDchina.All right reserved

返回頂部 聯系我們
必赢客时时彩群计划