查看: 36|回復: 0
打印 上一主題 下一主題

[10bit.SDR] 優步危機/斯圖伯 Stuber.2019.2160p.BluRay.x265.10bit.SDR.DTS-HD.MA.TrueHD.7.1.Atmos-SWTYBLZ 27.77GB

[復制鏈接]

 成長值: 2780

級別:資源管理組

注冊時間
2017-10-20
最后登錄
2019-10-11
聽眾
1
收聽
0
主題
84382
藍光幣
54193 枚
貢獻
8739 點
跳轉到指定樓層
樓主


譯  名 優步危機 / 斯圖伯 / 狂玩嘢時速(港) / 玩命優步(臺)
片  名 Stuber
年  代 2019
產  地 美國
類  別 喜劇 / 動作
語  言 英語
上映日期 2019-07-12(美國)
IMDb評分  6.2/10 from 9167 users
IMDb鏈接  http://www.imdb.com/title/tt7734218
豆瓣評分 6.5/10 from 246 users
豆瓣鏈接 https://movie.douban.com/subject/27603782/
片  長 105分鐘
導  演 邁克爾·道斯 Michael Dowse
編  劇 特里珀·克蘭西 Tripper Clancy
主  演 戴夫·巴蒂斯塔 Dave Bautista
       庫梅爾·南賈尼 Kumail Nanjiani
       伊科·烏艾斯 Iko Uwais
       貝蒂·吉爾平 Betty Gilpin
       米拉·索維諾 Mira Sorvino
       娜塔麗·莫瑞絲 Natalie Morales
       約書亞·米克爾 Joshua Mikel
       阿明·約瑟夫 Amin Joseph
       斯科特·勞倫斯 Scott Lawrence
       克里斯汀·霍恩 Christine Horn
       漢斯·馬雷羅 Hans Marrero
       雷內?莫蘭 Rene Moran


標  簽 喜劇 | 動作 | 美國 | 2019 | 犯罪 | 搞笑 | 二十世紀福克斯 | 家庭

簡  介  

  南賈尼飾演一名性格溫和的Uber司機,某天載的乘客是一位頭發斑白的警察,他正在追捕一名殘忍的殺手。司機發現自己面臨艱巨考驗,他必須要保持冷靜,保證服務質量以獲得五星好評。
  1. Video
  2. ID                                       : 1
  3. Format                                   : HEVC
  4. Format/Info                              : High Efficiency Video Coding
  5. Format profile                           : Main [email protected]@High
  6. Codec ID                                 : V_MPEGH/ISO/HEVC
  7. Duration                                 : 1 h 33 min
  8. Bit rate                                 : 33.6 Mb/s
  9. Width                                    : 3 840 pixels
  10. Height                                   : 1 608 pixels
  11. Display aspect ratio                     : 2.40:1
  12. Frame rate mode                          : Constant
  13. Frame rate                               : 23.976 (24000/1001) FPS
  14. Color space                              : YUV
  15. Chroma subsampling                       : 4:2:0
  16. Bit depth                                : 10 bits
  17. Bits/(Pixel*Frame)                       : 0.227
  18. Stream size                              : 21.9 GiB (79%)
  19. Title                                    : Stuber.2019.2160p.BluRay.x265.10bit.SDR.DTS-HD.MA.TrueHD.7.1.Atmos-SWTYBLZ
  20. Writing library                          : x265 3.0ed72af837053:[Windows][GCC 8.2.0][64 bit] 10bit
  21. Encoding settings                        : cpuid=1111039 / frame-threads=16 / numa-pools=44,44 / wpp / no-pmode / no-pme / no-psnr / no-ssim / log-level=2 / input-csp=1 / input-res=3840x1608 / interlace=0 / total-frames=134363 / level-idc=51 / high-tier=1 / uhd-bd=0 / ref=3 / no-allow-non-conformance / repeat-headers / annexb / aud / hrd / info / hash=0 / no-temporal-layers / no-open-gop / min-keyint=1 / keyint=24 / gop-lookahead=0 / bframes=4 / b-adapt=2 / b-pyramid / bframe-bias=0 / rc-lookahead=25 / lookahead-slices=4 / scenecut=40 / radl=0 / no-splice / no-intra-refresh / ctu=64 / min-cu-size=8 / no-rect / no-amp / max-tu-size=32 / tu-inter-depth=1 / tu-intra-depth=1 / limit-tu=0 / rdoq-level=0 / dynamic-rd=0.00 / no-ssim-rd / signhide / no-tskip / nr-intra=0 / nr-inter=0 / no-constrained-intra / strong-intra-smoothing / max-merge=2 / limit-refs=3 / no-limit-modes / me=1 / subme=2 / merange=57 / temporal-mvp / weightp / no-weightb / no-analyze-src-pics / deblock=0:0 / no-sao / no-sao-non-deblock / rd=3 / no-early-skip / rskip / no-fast-intra / no-tskip-fast / no-cu-lossless / no-b-intra / no-splitrd-skip / rdpenalty=0 / psy-rd=2.00 / psy-rdoq=0.00 / no-rd-refine / no-lossless / cbqpoffs=0 / crqpoffs=0 / rc=crf / crf=16.0 / qcomp=0.60 / qpstep=4 / stats-write=0 / stats-read=0 / vbv-maxrate=160000 / vbv-bufsize=160000 / vbv-init=0.9 / crf-max=0.0 / crf-min=0.0 / ipratio=1.40 / pbratio=1.30 / aq-mode=1 / aq-strength=1.00 / cutree / zone-count=0 / no-strict-cbr / qg-size=32 / no-rc-grain / qpmax=69 / qpmin=0 / no-const-vbv / sar=1 / overscan=0 / videoformat=5 / range=0 / colorprim=2 / transfer=2 / colormatrix=2 / chromaloc=0 / display-window=0 / max-cll=0,0 / min-luma=0 / max-luma=1023 / log2-max-poc-lsb=8 / vui-timing-info / vui-hrd-info / slices=1 / opt-qp-pps / opt-ref-list-length-pps / no-multi-pass-opt-rps / scenecut-bias=0.05 / no-opt-cu-delta-qp / no-aq-motion / no-hdr / no-hdr-opt / no-dhdr10-opt / no-idr-recovery-sei / analysis-reuse-level=5 / scale-factor=0 / refine-intra=0 / refine-inter=0 / refine-mv=0 / refine-ctu-distortion=0 / no-limit-sao / ctu-info=0 / no-lowpass-dct / refine-analysis-type=0 / copy-pic=1 / max-ausize-factor=1.0 / no-dynamic-refine / no-single-sei / no-hevc-aq / qp-adaptation-range=1.00
  22. Default                                  : Yes
  23. Forced                                   : No

  24. Audio #1
  25. ID                                       : 2
  26. Format                                   : MLP FBA 16-ch
  27. Format/Info                              : Meridian Lossless Packing FBA with 16-channel presentation
  28. Commercial name                          : Dolby TrueHD with Dolby Atmos
  29. Codec ID                                 : A_TRUEHD
  30. Duration                                 : 1 h 33 min
  31. Bit rate mode                            : Variable
  32. Bit rate                                 : 3 937 kb/s
  33. Maximum bit rate                         : 6 696 kb/s
  34. Channel(s)                               : 8 channels
  35. Channel layout                           : L R C LFE Ls Rs Lb Rb
  36. Sampling rate                            : 48.0 kHz
  37. Frame rate                               : 1 200.000 FPS (40 SPF)
  38. Compression mode                         : Lossless
  39. Stream size                              : 2.57 GiB (9%)
  40. Title                                    : Stuber.2019.2160p.BluRay.x265.10bit.SDR.DTS-HD.MA.TrueHD.7.1.Atmos-SWTYBLZ
  41. Language                                 : English
  42. Default                                  : Yes
  43. Forced                                   : No
  44. Number of dynamic objects                : 13
  45. Bed channel count                        : 1 channel
  46. Bed channel configuration                : LFE

  47. Audio #2
  48. ID                                       : 3
  49. Format                                   : DTS XLL
  50. Format/Info                              : Digital Theater Systems
  51. Commercial name                          : DTS-HD Master Audio
  52. Codec ID                                 : A_DTS
  53. Duration                                 : 1 h 33 min
  54. Bit rate mode                            : Variable
  55. Bit rate                                 : 3 908 kb/s
  56. Channel(s)                               : 8 channels
  57. Channel layout                           : C L R LFE Lb Rb Lss Rss
  58. Sampling rate                            : 48.0 kHz
  59. Frame rate                               : 93.750 FPS (512 SPF)
  60. Bit depth                                : 24 bits
  61. Compression mode                         : Lossless
  62. Stream size                              : 2.55 GiB (9%)
  63. Title                                    : Stuber.2019.2160p.BluRay.x265.10bit.SDR.DTS-HD.MA.TrueHD.7.1.Atmos-SWTYBLZ
  64. Language                                 : English
  65. Default                                  : No
  66. Forced                                   : No

  67. Audio #3
  68. ID                                       : 4
  69. Format                                   : AC-3
  70. Format/Info                              : Audio Coding 3
  71. Commercial name                          : Dolby Digital
  72. Codec ID                                 : A_AC3
  73. Duration                                 : 1 h 33 min
  74. Bit rate mode                            : Constant
  75. Bit rate                                 : 640 kb/s
  76. Channel(s)                               : 6 channels
  77. Channel layout                           : L R C LFE Ls Rs
  78. Sampling rate                            : 48.0 kHz
  79. Frame rate                               : 31.250 FPS (1536 SPF)
  80. Bit depth                                : 16 bits
  81. Compression mode                         : Lossy
  82. Stream size                              : 428 MiB (2%)
  83. Title                                    : Stuber.2019.2160p.BluRay.x265.10bit.SDR.DTS-HD.MA.TrueHD.7.1.Atmos-SWTYBLZ
  84. Language                                 : English
  85. Service kind                             : Complete Main
  86. Default                                  : No
  87. Forced                                   : No

  88. Text #1
  89. ID                                       : 5
  90. Format                                   : UTF-8
  91. Codec ID                                 : S_TEXT/UTF8
  92. Codec ID/Info                            : UTF-8 Plain Text
  93. Duration                                 : 1 h 26 min
  94. Bit rate                                 : 84 b/s
  95. Count of elements                        : 1967
  96. Stream size                              : 54.0 KiB (0%)
  97. Title                                    : English-SRT
  98. Language                                 : English
  99. Default                                  : Yes
  100. Forced                                   : No

  101. Text #2
  102. ID                                       : 6
  103. Format                                   : PGS
  104. Muxing mode                              : zlib
  105. Codec ID                                 : S_HDMV/PGS
  106. Codec ID/Info                            : Picture based subtitle format used on BDs/HD-DVDs
  107. Duration                                 : 1 h 27 min
  108. Bit rate                                 : 62.4 kb/s
  109. Count of elements                        : 4306
  110. Stream size                              : 38.9 MiB (0%)
  111. Title                                    : English-PGS
  112. Language                                 : English
  113. Default                                  : No
  114. Forced                                   : No

  115. Text #3
  116. ID                                       : 7
  117. Format                                   : PGS
  118. Muxing mode                              : zlib
  119. Codec ID                                 : S_HDMV/PGS
  120. Codec ID/Info                            : Picture based subtitle format used on BDs/HD-DVDs
  121. Duration                                 : 1 h 32 min
  122. Bit rate                                 : 47.6 kb/s
  123. Count of elements                        : 3592
  124. Stream size                              : 31.5 MiB (0%)
  125. Title                                    : Spanish-PGS
  126. Language                                 : Spanish
  127. Default                                  : No
  128. Forced                                   : No

  129. Text #4
  130. ID                                       : 8
  131. Format                                   : PGS
  132. Muxing mode                              : zlib
  133. Codec ID                                 : S_HDMV/PGS
  134. Codec ID/Info                            : Picture based subtitle format used on BDs/HD-DVDs
  135. Duration                                 : 1 h 32 min
  136. Bit rate                                 : 43.5 kb/s
  137. Count of elements                        : 3572
  138. Stream size                              : 28.8 MiB (0%)
  139. Title                                    : French-PGS
  140. Language                                 : French
  141. Default                                  : No
  142. Forced                                   : No

  143. Text #5
  144. ID                                       : 9
  145. Format                                   : PGS
  146. Muxing mode                              : zlib
  147. Codec ID                                 : S_HDMV/PGS
  148. Codec ID/Info                            : Picture based subtitle format used on BDs/HD-DVDs
  149. Duration                                 : 1 h 32 min
  150. Bit rate                                 : 43.9 kb/s
  151. Count of elements                        : 3262
  152. Stream size                              : 29.1 MiB (0%)
  153. Title                                    : Spanish-PGS
  154. Language                                 : Spanish
  155. Default                                  : No
  156. Forced                                   : No

  157. Text #6
  158. ID                                       : 10
  159. Format                                   : PGS
  160. Muxing mode                              : zlib
  161. Codec ID                                 : S_HDMV/PGS
  162. Codec ID/Info                            : Picture based subtitle format used on BDs/HD-DVDs
  163. Duration                                 : 1 h 32 min
  164. Bit rate                                 : 41.9 kb/s
  165. Count of elements                        : 2234
  166. Stream size                              : 27.7 MiB (0%)
  167. Title                                    : Danish-PGS
  168. Language                                 : Danish
  169. Default                                  : No
  170. Forced                                   : No

  171. Text #7
  172. ID                                       : 11
  173. Format                                   : PGS
  174. Muxing mode                              : zlib
  175. Codec ID                                 : S_HDMV/PGS
  176. Codec ID/Info                            : Picture based subtitle format used on BDs/HD-DVDs
  177. Duration                                 : 1 h 32 min
  178. Bit rate                                 : 38.9 kb/s
  179. Count of elements                        : 2362
  180. Stream size                              : 25.7 MiB (0%)
  181. Title                                    : Dutch-PGS
  182. Language                                 : Dutch
  183. Default                                  : No
  184. Forced                                   : No

  185. Text #8
  186. ID                                       : 12
  187. Format                                   : PGS
  188. Muxing mode                              : zlib
  189. Codec ID                                 : S_HDMV/PGS
  190. Codec ID/Info                            : Picture based subtitle format used on BDs/HD-DVDs
  191. Duration                                 : 1 h 32 min
  192. Bit rate                                 : 42.0 kb/s
  193. Count of elements                        : 3584
  194. Stream size                              : 27.8 MiB (0%)
  195. Title                                    : Finnish-PGS
  196. Language                                 : Finnish
  197. Default                                  : No
  198. Forced                                   : No

  199. Text #9
  200. ID                                       : 13
  201. Format                                   : PGS
  202. Muxing mode                              : zlib
  203. Codec ID                                 : S_HDMV/PGS
  204. Codec ID/Info                            : Picture based subtitle format used on BDs/HD-DVDs
  205. Duration                                 : 1 h 32 min
  206. Bit rate                                 : 46.3 kb/s
  207. Count of elements                        : 3386
  208. Stream size                              : 30.7 MiB (0%)
  209. Title                                    : German-PGS
  210. Language                                 : German
  211. Default                                  : No
  212. Forced                                   : No

  213. Text #10
  214. ID                                       : 14
  215. Format                                   : PGS
  216. Muxing mode                              : zlib
  217. Codec ID                                 : S_HDMV/PGS
  218. Codec ID/Info                            : Picture based subtitle format used on BDs/HD-DVDs
  219. Duration                                 : 1 h 32 min
  220. Bit rate                                 : 41.6 kb/s
  221. Count of elements                        : 3624
  222. Stream size                              : 27.5 MiB (0%)
  223. Title                                    : Italian-PGS
  224. Language                                 : Italian
  225. Default                                  : No
  226. Forced                                   : No

  227. Text #11
  228. ID                                       : 15
  229. Format                                   : PGS
  230. Muxing mode                              : zlib
  231. Codec ID                                 : S_HDMV/PGS
  232. Codec ID/Info                            : Picture based subtitle format used on BDs/HD-DVDs
  233. Duration                                 : 1 h 32 min
  234. Bit rate                                 : 44.0 kb/s
  235. Count of elements                        : 3622
  236. Stream size                              : 29.1 MiB (0%)
  237. Title                                    : Norwegian-PGS
  238. Language                                 : Norwegian
  239. Default                                  : No
  240. Forced                                   : No

  241. Text #12
  242. ID                                       : 16
  243. Format                                   : PGS
  244. Muxing mode                              : zlib
  245. Codec ID                                 : S_HDMV/PGS
  246. Codec ID/Info                            : Picture based subtitle format used on BDs/HD-DVDs
  247. Duration                                 : 1 h 32 min
  248. Bit rate                                 : 43.0 kb/s
  249. Count of elements                        : 3620
  250. Stream size                              : 28.5 MiB (0%)
  251. Title                                    : Swedish-PGS
  252. Language                                 : Swedish
  253. Default                                  : No
  254. Forced                                   : No

  255. Text #13
  256. ID                                       : 17
  257. Format                                   : PGS
  258. Muxing mode                              : zlib
  259. Codec ID                                 : S_HDMV/PGS
  260. Codec ID/Info                            : Picture based subtitle format used on BDs/HD-DVDs
  261. Duration                                 : 1 h 32 min
  262. Bit rate                                 : 43.7 kb/s
  263. Count of elements                        : 3626
  264. Stream size                              : 29.0 MiB (0%)
  265. Title                                    : Czech-PGS
  266. Language                                 : Czech
  267. Default                                  : No
  268. Forced                                   : No

  269. Text #14
  270. ID                                       : 18
  271. Format                                   : PGS
  272. Muxing mode                              : zlib
  273. Codec ID                                 : S_HDMV/PGS
  274. Codec ID/Info                            : Picture based subtitle format used on BDs/HD-DVDs
  275. Duration                                 : 1 h 27 min
  276. Bit rate                                 : 531 b/s
  277. Count of elements                        : 36
  278. Stream size                              : 340 KiB (0%)
  279. Title                                    : Czech-FORCED-PGS
  280. Language                                 : Czech
  281. Default                                  : No
  282. Forced                                   : No

  283. Text #15
  284. ID                                       : 19
  285. Format                                   : PGS
  286. Muxing mode                              : zlib
  287. Codec ID                                 : S_HDMV/PGS
  288. Codec ID/Info                            : Picture based subtitle format used on BDs/HD-DVDs
  289. Duration                                 : 1 h 32 min
  290. Bit rate                                 : 44.2 kb/s
  291. Count of elements                        : 3588
  292. Stream size                              : 29.3 MiB (0%)
  293. Title                                    : Hungarian-PGS
  294. Language                                 : Hungarian
  295. Default                                  : No
  296. Forced                                   : No

  297. Text #16
  298. ID                                       : 20
  299. Format                                   : PGS
  300. Muxing mode                              : zlib
  301. Codec ID                                 : S_HDMV/PGS
  302. Codec ID/Info                            : Picture based subtitle format used on BDs/HD-DVDs
  303. Duration                                 : 1 h 32 min
  304. Bit rate                                 : 29.0 kb/s
  305. Count of elements                        : 3626
  306. Stream size                              : 19.2 MiB (0%)
  307. Title                                    : Korean-PGS
  308. Language                                 : Korean
  309. Default                                  : No
  310. Forced                                   : No

  311. Text #17
  312. ID                                       : 21
  313. Format                                   : PGS
  314. Muxing mode                              : zlib
  315. Codec ID                                 : S_HDMV/PGS
  316. Codec ID/Info                            : Picture based subtitle format used on BDs/HD-DVDs
  317. Duration                                 : 1 h 33 min
  318. Bit rate                                 : 45.0 kb/s
  319. Count of elements                        : 3976
  320. Stream size                              : 30.0 MiB (0%)
  321. Title                                    : Korean-PGS
  322. Language                                 : Korean
  323. Default                                  : No
  324. Forced                                   : No

  325. Menu
  326. 00:00:00.000                             : en:Chapter 01
  327. 00:05:52.643                             : en:Chapter 02
  328. 00:09:56.846                             : en:Chapter 03
  329. 00:14:14.854                             : en:Chapter 04
  330. 00:17:30.591                             : en:Chapter 05
  331. 00:19:46.059                             : en:Chapter 06
  332. 00:22:40.275                             : en:Chapter 07
  333. 00:27:33.401                             : en:Chapter 08
  334. 00:31:30.680                             : en:Chapter 09
  335. 00:33:18.955                             : en:Chapter 10
  336. 00:35:39.887                             : en:Chapter 11
  337. 00:40:13.035                             : en:Chapter 12
  338. 00:45:05.202                             : en:Chapter 13
  339. 00:49:10.113                             : en:Chapter 14
  340. 00:52:36.987                             : en:Chapter 15
  341. 00:56:46.111                             : en:Chapter 16
  342. 01:01:54.001                             : en:Chapter 17
  343. 01:05:43.397                             : en:Chapter 18
  344. 01:08:37.196                             : en:Chapter 19
  345. 01:13:31.156                             : en:Chapter 20
  346. 01:16:44.516                             : en:Chapter 21
  347. 01:19:07.200                             : en:Chapter 22
  348. 01:23:54.779                             : en:Chapter 23
  349. 01:27:49.597                             : en:Chapter 24
復制代碼









本帖隱藏的下載地址需要VIP會員才可瀏覽,您需要升級才可瀏覽,點擊這里升級VIP
分享到:  QQ好友和群QQ好友和群
收藏收藏
VIP會員免費任意下載本站所有資源!---點擊開通
回復

使用道具 舉報

懶得打字嘛,點擊右側快捷回復 【右側內容,后臺自定義】
您需要登錄后才可以回帖 登錄 | 立即注冊

本版積分規則

QQ|Archiver|手機版|小黑屋| 中國高清網 |網站地圖

GMT+8, 2019-10-11 16:57 , Processed in 0.383458 second(s), 38 queries .

Powered by HDchina X3.4

Copyright 2017-2019©HDchina.All right reserved

返回頂部 聯系我們
必赢客时时彩群计划