查看: 41|回復: 1
打印 上一主題 下一主題

[動作片] 男兒本色 Invisible.Target.2007.1080p.Bluray.x264-DEFiNiTE 10.11GB

[復制鏈接]

 成長值: 2780

級別:資源管理組

注冊時間
2017-10-20
最后登錄
2019-10-11
聽眾
1
收聽
0
主題
84382
藍光幣
54193 枚
貢獻
8739 點
跳轉到指定樓層
樓主


譯  名 Invisible Target
片  名 男兒本色
年  代 2007
產  地 中國大陸 / 中國香港
類  別 動作 / 犯罪
語  言 漢語普通話 / 粵語
上映日期 2007-07-19(中國香港)
IMDb評分  6.7/10 from 2674 users
IMDb鏈接  http://www.imdb.com/title/tt0995739
豆瓣評分 6.9/10 from 61529 users
豆瓣鏈接 https://movie.douban.com/subject/2080133/
片  長 129分鐘
導  演 陳木勝 Benny Chan
編  劇 陳木勝 Benny Chan / 呂思琳 / 凌志民 Chi-man Ling
主  演 謝霆鋒 Nicholas Tse
       余文樂 Shawn Yue
       房祖名 Jaycee Chan
       吳京 Jacky Wu
       安志杰 Andy On
       江若琳 Elanne kwong


標  簽 動作 | 香港 | 香港電影 | 男兒本色 | 謝霆鋒 | 警匪 | 陳木勝 | 余文樂

簡  介  

  繁盛的中環街道上,突然一聲爆炸巨響,押款車一億美元新鈔被天養生(吳京飾)等一幫劫匪于路上公然劫走。多名無辜人員死傷,其中一人為警員陳晉(謝霆鋒飾)的未婚妻子。陳晉自此立誓追捕天養生以報仇雪恨,可天養生與一億美元卻不見蹤跡。
  半年后,見習督察方奕威(余文樂飾)帶領警員截查車輛時遇襲,隊員全體重傷,原來天養生一伙重新出現。高級警司章文耀(林嘉華飾)和羅沛權(鄭浩南飾)共同策劃連鎖行動,誓要將一伙匪徒逮捕。巡警衛景灝(房祖名飾)的哥哥是名打入天養生團伙內部的臥底,礙于身份,他被暫時停職,并想著還哥哥一個清白。三人的追捕中幾次不敵天養生,但發現警方有內奸……

獲獎情況  

  第44屆臺北金馬影展(2007)
  金馬獎 最佳男配角(提名) 吳京
  金馬獎 最佳動作設計(提名) 李忠志
  金馬獎 最佳原創配樂(提名) 禇鎮東

  第27屆香港電影金像獎(2008)
  最佳動作設計(提名) 李忠志

  第9屆中國長春電影節(2008)
  金鹿獎 最佳導演(提名) 陳木勝
  評委會特別獎(提名)
  1. Video
  2. ID                                       : 1
  3. Format                                   : AVC
  4. Format/Info                              : Advanced Video Codec
  5. Format profile                           : [email protected]
  6. Format settings                          : CABAC / 8 Ref Frames
  7. Format settings, CABAC                   : Yes
  8. Format settings, Reference frames        : 8 frames
  9. Codec ID                                 : V_MPEG4/ISO/AVC
  10. Duration                                 : 2 h 9 min
  11. Bit rate                                 : 9 661 kb/s
  12. Width                                    : 1 920 pixels
  13. Height                                   : 816 pixels
  14. Display aspect ratio                     : 2.35:1
  15. Frame rate mode                          : Constant
  16. Frame rate                               : 24.000 FPS
  17. Color space                              : YUV
  18. Chroma subsampling                       : 4:2:0
  19. Bit depth                                : 8 bits
  20. Scan type                                : Progressive
  21. Bits/(Pixel*Frame)                       : 0.257
  22. Stream size                              : 8.54 GiB (85%)
  23. Title                                    : Invisible Target
  24. Writing library                          : x264 core 57 svn-709C
  25. Encoding settings                        : cabac=1 / ref=5 / deblock=1:-1:-1 / analyse=0x3:0x113 / me=umh / fpel_cmp=sad / subme=7 / me-prepass=0 / brdo=1 / mixed_ref=1 / me_range=16 / chroma_me=1 / trellis=1 / 8x8dct=1 / cqm=0 / deadzone=6,6 / chroma_qp_offset=0 / threads=3 / nr=0 / decimate=1 / mbaff=0 / bframes=3 / b_pyramid=1 / b_adapt=1 / b_bias=0 / direct=1 / wpredb=1 / bime=1 / keyint=250 / keyint_min=25 / scenecut=40(pre) / rc=2pass / bitrate=9661 / ratetol=1.0 / rceq=\'blurCplx^(1-qComp)\' / qcomp=0.60 / qpmin=3 / qpmax=51 / qpstep=4 / cplxblur=20.0 / qblur=0.5 / ip_ratio=1.40 / pb_ratio=1.30 / aq=1:0.5:15.0
  26. Default                                  : Yes
  27. Forced                                   : No

  28. Audio
  29. ID                                       : 2
  30. Format                                   : DTS
  31. Format/Info                              : Digital Theater Systems
  32. Codec ID                                 : A_DTS
  33. Duration                                 : 2 h 9 min
  34. Bit rate mode                            : Constant
  35. Bit rate                                 : 1 509 kb/s
  36. Channel(s)                               : 6 channels
  37. Channel layout                           : C L R Ls Rs LFE
  38. Sampling rate                            : 48.0 kHz
  39. Frame rate                               : 93.750 FPS (512 SPF)
  40. Bit depth                                : 24 bits
  41. Compression mode                         : Lossy
  42. Stream size                              : 1.37 GiB (14%)
  43. Title                                    : DTS
  44. Language                                 : Chinese
  45. Default                                  : Yes
  46. Forced                                   : No

  47. Text
  48. ID                                       : 3
  49. Format                                   : UTF-8
  50. Codec ID                                 : S_TEXT/UTF8
  51. Codec ID/Info                            : UTF-8 Plain Text
  52. Language                                 : English
  53. Default                                  : Yes
  54. Forced                                   : No
復制代碼









分享到:  QQ好友和群QQ好友和群
收藏收藏
VIP會員免費任意下載本站所有資源!---點擊開通
回復

使用道具 舉報

級別:初級觀眾 Lv.1

注冊時間
2019-10-8
最后登錄
2019-10-11
聽眾
0
收聽
0
主題
0
藍光幣
10 枚
貢獻
0 點
QQ
沙發
發表于 1 小時前 | 只看該作者
發貼辛苦了,謝謝樓主分享
VIP會員免費任意下載本站所有資源!---點擊開通
回復

使用道具 舉報

懶得打字嘛,點擊右側快捷回復 【右側內容,后臺自定義】
您需要登錄后才可以回帖 登錄 | 立即注冊

本版積分規則

QQ|Archiver|手機版|小黑屋| 中國高清網 |網站地圖

GMT+8, 2019-10-11 16:56 , Processed in 0.402102 second(s), 39 queries .

Powered by HDchina X3.4

Copyright 2017-2019©HDchina.All right reserved

返回頂部 聯系我們
必赢客时时彩群计划