查看: 48|回復: 2
打印 上一主題 下一主題

[劇情片] 我們贏了今夜 The.Set-Up.1949.720p.BluRay.x264-SiNNERS 3.28GB

[復制鏈接]

 成長值: 2780

級別:資源管理組

注冊時間
2017-10-20
最后登錄
2019-10-11
聽眾
1
收聽
0
主題
84382
藍光幣
54193 枚
貢獻
8739 點
跳轉到指定樓層
樓主
發表于 2019-9-25 22:50:57 | 只看該作者 |只看大圖 回帖獎勵 |倒序瀏覽 |閱讀模式
0 N/ I3 r2 r- n% W# |  r

, P' A2 s5 e, s1 r% `0 H4 V/ I; g譯  名 我們贏了今夜 / We Have Won Tonight / 出賣皮肉的人
5 {' \# b9 n7 M% ~片  名 The Set-Up+ ]" F9 l& K+ j* Z1 D
年  代 1949: P6 K6 x' q- f- U
產  地 美國4 \7 h( j  l+ U0 o: b
類  別 運動 / 黑色電影' d! R2 k) F6 H6 {4 w: _2 _: s, H
語  言 英語+ z% j" x* T( x. ^& u. C! g+ f
上映日期 1949-03-29- [8 v# K5 X" @  e8 u$ C
IMDb評分  7.9/10 from 6959 users
9 @  ^. e+ E. s: q3 X; r, _6 [IMDb鏈接  http://www.imdb.com/title/tt0041859" D  I. h% e, r# n6 Y' \4 _: M7 @3 V
豆瓣評分 8.0/10 from 379 users
+ Y' |$ x% g0 H7 j& F豆瓣鏈接 https://movie.douban.com/subject/1297494/  ~5 I% J' @0 C4 P4 c3 m, O1 m0 [
片  長 72 分鐘
9 A! z! T' I3 s6 u- o% l# M: O7 P導  演 羅伯特·懷斯 Robert Wise
. F+ q; b7 {, B) X  A編  劇 Art Cohn / Joseph Moncure March, T0 d/ _4 e2 N! l- k4 \# s
主  演 羅伯特·瑞安 Robert Ryan  Y/ r' _  c0 Z4 e3 P
( _; U1 t6 [9 V- w

. Z; B& H5 n# j; \- B4 l5 G! Q標  簽 美國 | 黑色電影 | 羅伯特·懷斯 | 1949 | 黑色 | 1940s | RobertWise | 美國電影* D3 @7 l, R  s; h2 O- t: t* I5 o4 U
$ p. N" c, v2 U! T9 Z5 k
簡  介  
. A, d/ W8 U" a$ y2 b4 s
& V" d, @# F0 A2 Z0 G( p% ~  比爾(羅伯特·瑞安 Robert Ryan 飾)是一名職業拳擊手,他和女友朱莉(奧黛麗·托特 Audrey Totter 飾)之間的感情十分要好,朱莉是他在比賽中的精神支柱。時常生活在窘困之中的比爾好勝心非常的強,因為輸掉比賽意味著他將顆粒無收,所以他必須贏。: @! N0 @! N6 G% V1 j# m. @8 M4 a
  在一場比賽中,比爾的對手是名為奈爾森(哈爾·貝勒 Hal Baylor 飾)的強壯男子,在比賽之前,教練告訴比爾,這是一場被黑道操縱的比賽,在擂臺上,比爾必須認輸。然而,在激烈的比賽之中,處于劣勢的比爾不愿屈服與黑幫的強權,最終靠著驚人的實力達到了奈爾森。比爾雖然贏得了比賽,卻惹惱了一直在背地里操縱著比賽的黑幫。
& z  A+ V4 ^% \3 j
! I% z% ~. Q+ v& _獲獎情況  
5 a: M/ N* w; O
$ P+ @- k5 m2 J$ }& Y. k  第3屆戛納電影節(1949)3 v  r* K& N! q, h
  主競賽單元 金棕櫚獎(提名) 羅伯特·懷斯
) K: t4 y6 Y- f# j  費比西獎 羅伯特·懷斯
/ r7 x: Z/ Z" P! W. D3 L0 M. i  最佳攝影 米爾頓·R·克拉斯納
$ |1 C4 G9 j. e! q& o; ^& }
  1. Video- F4 I3 z1 t; T; r! R- }) W) I
  2. ID                                       : 19 A% y2 h$ {% l) F6 A3 R" T9 L7 F
  3. Format                                   : AVC5 N' H) s+ {7 n0 L8 L, Q
  4. Format/Info                              : Advanced Video Codec
    * f' D( C+ |& p$ F2 U
  5. Format profile                           : [email protected]
    4 s. s9 [- ?! P; r1 P
  6. Format settings                          : CABAC / 9 Ref Frames
    / x9 j* R% H0 w* |3 `2 o/ E9 r7 `0 r
  7. Format settings, CABAC                   : Yes
    ; U+ i, o$ J# Q2 Z
  8. Format settings, Reference frames        : 9 frames7 }: Y, z9 Z1 }4 r. w
  9. Codec ID                                 : V_MPEG4/ISO/AVC
    5 k& y* ^6 ~9 f0 B7 U) {1 g8 y
  10. Duration                                 : 1 h 12 min
    : W. h9 t- S. ~) b4 u! S/ g
  11. Bit rate                                 : 4 956 kb/s
    4 P# H, U: q. w9 o- S8 P% G
  12. Width                                    : 992 pixels
    / K) J6 L+ F3 N( c) ?
  13. Height                                   : 720 pixels& n- W% v5 ^( m0 h7 q7 S1 z6 F, @
  14. Display aspect ratio                     : 1.378
    8 f: j' y3 f9 ]3 }6 Q! q+ m7 W$ |& V
  15. Frame rate mode                          : Constant/ d! d& m0 u' f4 m& }, t
  16. Frame rate                               : 23.976 (24000/1001) FPS- j- l2 x% y4 y# \
  17. Color space                              : YUV
    , k5 `' Q. M6 z3 @0 |/ ^
  18. Chroma subsampling                       : 4:2:0$ I& i8 {$ b2 _- c. x4 k' `0 ?
  19. Bit depth                                : 8 bits
    * r* V* a& J/ B! G! `/ D6 T/ ?
  20. Scan type                                : Progressive  I* L5 h+ m9 \! v' G5 }
  21. Bits/(Pixel*Frame)                       : 0.289. ]9 C5 J0 p1 h* N. _' `
  22. Stream size                              : 2.51 GiB (77%)
    : f4 M" h" k2 H8 g% G
  23. Writing library                          : x264 core 158 r2984 3759fcb: O( ~6 T$ m2 A( X. E9 m
  24. Encoding settings                        : cabac=1 / ref=9 / deblock=1:-3:-3 / analyse=0x3:0x113 / me=umh / subme=8 / psy=1 / psy_rd=1.00:0.00 / mixed_ref=1 / me_range=16 / chroma_me=1 / trellis=1 / 8x8dct=1 / cqm=0 / deadzone=21,11 / fast_pskip=0 / chroma_qp_offset=-2 / threads=22 / lookahead_threads=3 / sliced_threads=0 / nr=0 / decimate=1 / interlaced=0 / bluray_compat=0 / constrained_intra=0 / bframes=3 / b_pyramid=2 / b_adapt=1 / b_bias=0 / direct=1 / weightb=1 / open_gop=0 / weightp=2 / keyint=250 / keyint_min=23 / scenecut=40 / intra_refresh=0 / rc_lookahead=40 / rc=2pass / mbtree=1 / bitrate=4956 / ratetol=1.0 / qcomp=0.60 / qpmin=0 / qpmax=69 / qpstep=4 / cplxblur=20.0 / qblur=0.5 / ip_ratio=1.40 / aq=1:1.006 P: \/ ~4 H8 Z$ h. Z: S
  25. Language                                 : English
    ; G6 d) d5 D% R9 w4 O" P
  26. Default                                  : Yes
    7 E* @% @( c4 ?. a
  27. Forced                                   : No
    9 [- ?% s4 Q+ R( b7 Y, W4 M
  28. 6 a% L# `3 D9 a6 g4 r% K7 \
  29. Audio+ b; @7 b/ {- ~& @6 L
  30. ID                                       : 2& C: O$ U0 h% N$ M5 P" v
  31. Format                                   : DTS
    5 \) ~9 G, a8 c+ E
  32. Format/Info                              : Digital Theater Systems; }9 ?& G% r4 o2 G3 m& v
  33. Codec ID                                 : A_DTS6 T$ l# e! R% f  ^' l$ H
  34. Duration                                 : 1 h 12 min
    9 q  v3 g" _$ p/ i
  35. Bit rate mode                            : Constant
    4 j2 C) k+ \+ H, d- S9 H
  36. Bit rate                                 : 1 509 kb/s2 [' }* ]2 t) E
  37. Channel(s)                               : 2 channels
    ' S0 G* H9 `7 J" h5 E: p: m) L
  38. Channel layout                           : L R; G( k4 R) F, `  U. Z: I6 P) S
  39. Sampling rate                            : 48.0 kHz
    9 K9 O( G) N- M0 _
  40. Frame rate                               : 93.750 FPS (512 SPF)
    ' k/ _6 E' ]5 ?/ W/ M3 h
  41. Bit depth                                : 24 bits
    2 S1 R1 i8 |' x% D2 t+ \8 E
  42. Compression mode                         : Lossy
    % {1 ]' `! s* W- }, [$ C
  43. Stream size                              : 783 MiB (23%), B7 J0 n7 L* T$ l; Q% Z
  44. Language                                 : English
    * c1 X  a; ]+ v7 M- X
  45. Default                                  : Yes
    $ w& ^( N% m6 i9 d
  46. Forced                                   : No! u8 ?- z3 H- T9 c

  47. ' w; ]! n. O( w
  48. Text #1
    : C  m& x* z1 w# X' j5 A9 S+ y
  49. ID                                       : 3
    ' L  i( s* a8 D
  50. Format                                   : UTF-8
    4 x2 o% Q5 ^& L% G; W
  51. Codec ID                                 : S_TEXT/UTF8# ~/ i. h; Q/ h0 w" I1 [* P2 Y
  52. Codec ID/Info                            : UTF-8 Plain Text
    3 {- l' H5 Y# l
  53. Duration                                 : 1 h 10 min+ ]  |7 e" w. U8 ~; P. x7 c
  54. Bit rate                                 : 49 b/s0 E% D9 ^+ p+ f
  55. Count of elements                        : 7649 w* g9 D( {2 A6 Y- h. m0 @
  56. Stream size                              : 25.6 KiB (0%). D. {/ A) _' o# T* O
  57. Language                                 : English; V1 j! `% }; [7 q( Q8 D$ H
  58. Default                                  : No' d( e' ^# n3 h8 E" H' _. N
  59. Forced                                   : No
    ' F" L; p- `" C5 V. K

  60. 4 P$ l4 V( v1 {- K- W
  61. Text #2
    * t& K' R1 a% j# w/ ?5 D2 u
  62. ID                                       : 46 z" W% f" P3 P; `
  63. Format                                   : UTF-87 I# R) X8 G* \: h: j6 N" d8 F5 \
  64. Codec ID                                 : S_TEXT/UTF8
      `* Q! o! d! `5 F- H8 ^
  65. Codec ID/Info                            : UTF-8 Plain Text" H# y- n6 t+ e& M' A" z' M
  66. Duration                                 : 1 h 11 min% M; D! G  G) A) ]* X( i  o7 M
  67. Bit rate                                 : 51 b/s/ D5 ~$ a1 s' A- E
  68. Count of elements                        : 857
    . B' r( M) K8 W7 P2 T0 [4 O3 Z/ s
  69. Stream size                              : 27.4 KiB (0%). I& Z3 ~+ d5 Q4 t0 e! Z
  70. Title                                    : SDH
    1 Z* _& V7 {' B
  71. Language                                 : English
    / e& B# [* y1 W: G4 H2 d  }$ u4 A
  72. Default                                  : No
    2 g) G" f9 J. m1 k, {  S7 l
  73. Forced                                   : No
    * z7 z7 |3 U- U! |3 H  B

  74. ; T. i% ?; n% M. S4 D
  75. Menu2 t' ]# E$ ?+ F& Q5 ?8 r
  76. 00:00:00.000                             : en:00:00:00.000
    - f; J# z3 M- {: ?
  77. 00:01:08.902                             : en:00:01:08.902* h8 Y' C; w2 {
  78. 00:07:10.722                             : en:00:07:10.722  a7 x" o$ q+ G8 n- f9 y8 J$ A
  79. 00:12:26.162                             : en:00:12:26.162% g, h/ S3 @( I1 C- p$ ^
  80. 00:15:07.615                             : en:00:15:07.615
    2 p: x7 q, K) `7 X6 @: z1 S! c
  81. 00:19:53.526                             : en:00:19:53.5269 j. Q$ H. c6 ]: X  x; [* y
  82. 00:24:20.376                             : en:00:24:20.3760 o2 a$ r- W; C- T2 \. A. W& p+ k+ n
  83. 00:28:15.444                             : en:00:28:15.444
    $ C; Q# X: p  Q8 x+ l
  84. 00:30:56.146                             : en:00:30:56.146
    : ^" n4 i* n' ]! x6 l/ [+ Z' {
  85. 00:33:33.803                             : en:00:33:33.803
    ( q) W6 u4 o# i8 L% `, E5 d
  86. 00:37:12.480                             : en:00:37:12.4809 w" _# K4 E; L5 z% e# R; f
  87. 00:42:07.775                             : en:00:42:07.775
    % ]9 x7 l' p0 k0 ~# P
  88. 00:46:43.759                             : en:00:46:43.759
    . H: l; c3 x' h( v
  89. 00:51:47.479                             : en:00:51:47.479+ W; i$ M2 T9 z6 v; Z! `
  90. 00:52:59.843                             : en:00:52:59.843" u5 k4 K/ }' R6 [6 Y; U
  91. 00:56:41.898                             : en:00:56:41.898
    0 _3 W5 \$ W; t3 u
  92. 00:59:25.979                             : en:00:59:25.979
    3 c/ l3 _* G3 f0 ~* S. ?
  93. 01:02:19.027                             : en:01:02:19.027
    ! ~2 s0 Y, s4 J" w- S
  94. 01:07:23.957                             : en:01:07:23.957
    4 V' Y% ^6 s+ I) ^* ?
  95. 01:11:42.965                             : en:01:11:42.965
復制代碼

4 L9 Q' K$ W6 z4 l . J; p# X! b) }% c8 _, W3 z
- W' ^! w2 s9 ~" M" q2 @/ `* s" J% Z) w! ]

7 F& P* `# j4 k2 L1 |% P6 D8 O3 t. S$ B% k' x+ Y# Q% f: ?

+ i. w, Q% P7 L  T1 f9 H0 C8 I0 u- a7 _$ Z5 @; c6 n; w
7 X" f6 b/ P. c1 n
, n( w' ]* W' \
分享到:  QQ好友和群QQ好友和群
收藏收藏
VIP會員免費任意下載本站所有資源!---點擊開通
回復

使用道具 舉報

級別:群眾演員 Lv.3

注冊時間
2019-7-28
最后登錄
2019-10-10
聽眾
4
收聽
0
主題
0
藍光幣
99 枚
貢獻
0 點
沙發
發表于 2019-9-26 13:18:55 | 只看該作者
樓主發貼辛苦了,謝謝樓主分享!我覺得中國高清電影網是注冊對了!
VIP會員免費任意下載本站所有資源!---點擊開通
回復

使用道具 舉報

級別:領銜主演 Lv.6

注冊時間
2019-4-24
最后登錄
2019-10-11
聽眾
13
收聽
0
主題
0
藍光幣
136 枚
貢獻
0 點
板凳
發表于 半小時前 | 只看該作者
樓主發貼辛苦了,謝謝樓主分享!我覺得中國高清電影網是注冊對了!
VIP會員免費任意下載本站所有資源!---點擊開通
回復

使用道具 舉報

懶得打字嘛,點擊右側快捷回復 【右側內容,后臺自定義】
您需要登錄后才可以回帖 登錄 | 立即注冊

本版積分規則

QQ|Archiver|手機版|小黑屋| 中國高清網 |網站地圖

GMT+8, 2019-10-11 16:57 , Processed in 0.327862 second(s), 38 queries .

Powered by HDchina X3.4

Copyright 2017-2019©HDchina.All right reserved

返回頂部 聯系我們
必赢客时时彩群计划