查看: 63|回復: 1
打印 上一主題 下一主題

[劇情片] 式日 Ritual.2000.720p.BluRay.x264-REGRET 5.47GB

[復制鏈接]

 成長值: 3410

級別:資源管理組

注冊時間
2017-10-20
最后登錄
2019-12-9
聽眾
1
收聽
0
主題
88361
藍光幣
69732 枚
貢獻
12723 點
跳轉到指定樓層
樓主
發表于 2019-9-25 21:43:56 | 只看該作者 |只看大圖 回帖獎勵 |倒序瀏覽 |閱讀模式

( p6 ^! y8 W& k- V9 P% D* Q- y8 X) m) j! A
譯  名 Shiki Jitsu1 b# W" v- z. r( g
片  名 式日
1 b1 L( Z; L8 q, f. e, Q. |年  代 20006 v, `' S6 H) T! v1 z- P6 H$ Y1 a
產  地 日本  e5 R  Z7 F, Z; T
類  別 劇情- C. i3 j( D" S4 q
語  言 日語
$ t! {8 X! ~& g4 A上映日期 2000-12-07(日本)/ K7 R( c$ q6 x. C
IMDb評分  7.5/10 from 1484 users: Q5 N$ b$ t. i. j& i( }
IMDb鏈接  http://www.imdb.com/title/tt0269856/ X1 d" I) |% q% a6 C- p
豆瓣評分 7.5/10 from 5009 users
8 n8 l1 }2 [5 Z! l7 N0 r豆瓣鏈接 https://movie.douban.com/subject/1307322/6 U7 @0 v4 ?9 z
片  長 128分鐘
- s. ^6 y8 C, W: [6 A3 L+ e導  演 庵野秀明 Hideaki Anno; e7 M+ G: X- H" n" W, z0 N
編  劇 藤谷文子 Ayako Fujitani / 庵野秀明 Hideaki Anno
& x$ ~  x/ D1 m- j3 O+ a& F主  演 巖井俊二 Shunji Iwai
/ x  ?& I4 H. r% F# _' i       藤谷文子 Ayako Fujitani2 P  K' R+ e7 C
       村上淳 Jun Murakami  s" c* J+ V) d' V1 u+ X
       大竹忍 Shinobu ?take1 W; ]1 Z  q. I# `9 q" _/ g
       松尾鈴木 Suzuki Matsuo
) o, k; U- j2 C2 b( z5 v       林原惠美 Megumi Hayashibara
5 e, w* q. L* F8 X# }% B3 p$ o* b, }
0 Q- r* N0 `8 c1 h" n/ |
. s4 P0 E- h8 S標  簽 巖井俊二 | 日本 | 庵野秀明 | 日本電影 | 式日 | 文藝 | 青春 | 電影5 l/ M+ C$ \4 H' _
5 f* R* X. G' D! d4 G
簡  介  # C7 x, y9 r6 y; {

; X5 ]. F8 _( I/ F' L  人煙寥落,陰霾蒼涼。在這個與大都會形成鮮明對比的蕭索小鎮,兩個有著不同背景的男女相遇了。一個是在東京小有成就的電影導演(巖井俊二 飾),然而他無法直視莫大的空虛與失落,渴望暫時逃離名利場,尋找創作的動力與激情;女孩(藤谷文子 飾)身著紅色雨衣,在晴天里也打著雨傘,永遠宣稱明天是她的生日。仿佛受到命運的驅使,導演走近女孩的生活,并將鏡頭對準了這個藏著萬千心事和愁緒的精靈。他跟隨她走過廢墟大樓的樓頂,以及其賴以棲身的地下室。煩躁、憎惡、憂愁、悲傷、喜悅、失落,各種情緒交錯,不由分說將他們緊緊纏繞在一起……4 Q1 |8 p& ~/ Y) _0 A8 o3 r8 X+ Z9 R
  本片根據女主角藤谷文子的小說《逃避夢》改編。1 f: P) q4 z2 r9 W' {! a

7 Z* M. u, b/ |  o& S; J獲獎情況  
( \# |# k1 r! w; m/ V! F
1 f# c6 d1 X5 Z# J  第13屆東京國際電影節(2000)
2 h# ^" @# W) k  主競賽單元 最佳影片(提名) 庵野秀明
6 c7 T( }& o  }7 z2 P, D5 T  主競賽單元 最佳藝術貢獻獎 庵野秀明
& J1 p$ S, {6 i: U1 W
  1. Video
    % \2 a1 r5 P& E! ~
  2. ID                                       : 1
    , E8 Y5 O4 X) Z$ f
  3. Format                                   : AVC: f5 ~: ~  w2 l+ ^
  4. Format/Info                              : Advanced Video Codec1 G1 S& A/ k) i+ I# X2 F
  5. Format profile                           : [email protected]
    6 q. U2 g* M$ Z8 ]( V8 g$ s
  6. Format settings                          : CABAC / 5 Ref Frames
    ! m  |% X* d8 ]& D3 g- v! W
  7. Format settings, CABAC                   : Yes
    % T6 ]# X2 J( z' }
  8. Format settings, Reference frames        : 5 frames
    9 W0 X+ ~+ m9 a' {
  9. Codec ID                                 : V_MPEG4/ISO/AVC
    3 {3 B8 c; ?# A: H) {/ i+ f) G
  10. Duration                                 : 2 h 7 min
    0 a* f) v  z) \  f, o
  11. Bit rate                                 : 4 607 kb/s" |- o- r: d5 X7 o3 }- |* Q
  12. Width                                    : 1 280 pixels
    % x+ y* G1 j# P1 B
  13. Height                                   : 536 pixels( V2 [$ I( P# T( _4 }
  14. Display aspect ratio                     : 2.40:1
    : I; u# D. W4 p, B
  15. Frame rate mode                          : Constant
    * H: s  k9 _& b" p
  16. Frame rate                               : 23.976 (24000/1001) FPS8 `4 D' P6 C# y) e) P: N% g2 r& [
  17. Color space                              : YUV- Q4 O7 u7 A9 Z5 M( \; @8 S; }' R
  18. Chroma subsampling                       : 4:2:0
    / O: T5 ^( C- v( {* `4 V; @  f' G
  19. Bit depth                                : 8 bits
    ) J+ Y( T7 C% y$ k6 a5 r! a/ @& r, a
  20. Scan type                                : Progressive! U  L; ^8 U4 i/ b
  21. Bits/(Pixel*Frame)                       : 0.280
    4 \' j/ f$ a' F: i- S9 ^2 X
  22. Stream size                              : 4.12 GiB (75%): S1 I0 L+ Z: j" R9 Y; k+ m
  23. Writing library                          : x264 core 157 r2970 5493be8
    ; c2 Q. S, @! y2 t- h, q
  24. Encoding settings                        : cabac=1 / ref=5 / deblock=1:-3:-3 / analyse=0x3:0x133 / me=umh / subme=9 / psy=1 / psy_rd=1.00:0.00 / mixed_ref=1 / me_range=16 / chroma_me=1 / trellis=2 / 8x8dct=1 / cqm=0 / deadzone=21,11 / fast_pskip=0 / chroma_qp_offset=-2 / threads=17 / lookahead_threads=1 / sliced_threads=0 / nr=0 / decimate=1 / interlaced=0 / bluray_compat=0 / constrained_intra=0 / bframes=3 / b_pyramid=2 / b_adapt=1 / b_bias=0 / direct=3 / weightb=1 / open_gop=0 / weightp=2 / keyint=240 / keyint_min=24 / scenecut=40 / intra_refresh=0 / rc_lookahead=50 / rc=2pass / mbtree=1 / bitrate=4607 / ratetol=1.0 / qcomp=0.60 / qpmin=0 / qpmax=69 / qpstep=4 / cplxblur=20.0 / qblur=0.5 / ip_ratio=1.40 / aq=1:1.002 L% n) d3 j5 W. _/ T! S
  25. Language                                 : English) Q1 k+ Q, A% M5 |' G
  26. Default                                  : Yes
    $ J0 _$ f# G" z7 {- B( H5 J2 \
  27. Forced                                   : No
    ! `% H, g0 l; T) b

  28. % A" b6 x9 D3 l2 g. h
  29. Audio. F5 Z; F# M( Z2 L
  30. ID                                       : 2$ p# ?* ?9 I! C; L/ d' {4 r
  31. Format                                   : DTS# _, @9 w  p( G4 `
  32. Format/Info                              : Digital Theater Systems0 {4 _' X  W" `: g0 ]  y; C
  33. Codec ID                                 : A_DTS- r% I2 i( I2 I( l/ ?
  34. Duration                                 : 2 h 7 min
    $ A) t! q2 w1 c
  35. Bit rate mode                            : Constant& M9 Q& A- @( X/ z8 \- Z% _* N( [" x
  36. Bit rate                                 : 1 509 kb/s1 t6 \2 u8 A4 f  t* @. R
  37. Channel(s)                               : 5 channels
    / [+ ?& L5 r5 E' H7 J) _  n( [
  38. Channel layout                           : C L R Ls Rs
    & @. O+ L. V) M( j- G$ s
  39. Sampling rate                            : 48.0 kHz
    ! M0 x$ G7 u. @8 h
  40. Frame rate                               : 93.750 FPS (512 SPF)
    & K% E) o3 z  h8 w4 A2 m) b8 L
  41. Bit depth                                : 24 bits+ n" M3 [- [: b0 y5 t/ f
  42. Compression mode                         : Lossy
    2 L% P/ \; F$ q+ X( R  l' W3 S- |
  43. Stream size                              : 1.35 GiB (25%)1 o1 q7 h; s/ T" W; _/ p+ p! B$ X
  44. Language                                 : Japanese
    " g+ i0 J! V: [. Z; Y; E
  45. Default                                  : Yes
    1 L5 G0 \- e. ]( V6 n- q' T% a
  46. Forced                                   : No+ {5 y' A7 Q1 A
  47. * q& Z& y6 R" H, k$ m( J; D7 d
  48. Text% W* I! `0 c8 a( D" {, p
  49. ID                                       : 3
    9 M  ~7 |5 X& N
  50. Format                                   : UTF-8
      S- H; B3 P1 C
  51. Codec ID                                 : S_TEXT/UTF8
    5 J' W5 v5 n4 g& o+ ]8 s
  52. Codec ID/Info                            : UTF-8 Plain Text1 X9 W/ S# W3 f9 n
  53. Duration                                 : 2 h 6 min2 |: ]! r+ _% Z5 Y& I: Q* i
  54. Bit rate                                 : 35 b/s
    6 ?# {6 _' s, J% x: H4 w8 {, L
  55. Count of elements                        : 13517 I  R$ D, ?8 |% D$ ~
  56. Stream size                              : 32.5 KiB (0%)- f$ R* n6 g$ Y" Z% W4 c
  57. Title                                    : English. F# ]  K: r9 b8 w' c1 u* X  Q
  58. Language                                 : English' r- q0 Y6 T/ |4 W
  59. Default                                  : Yes
    ' N; h- Y% w7 Y& u8 \
  60. Forced                                   : Yes1 E" u/ B6 M) y4 Z9 I( T6 t
  61. ) m1 X( w/ `+ ]/ D1 K. ^; |
  62. Menu; g) `0 t% ~. M" g
  63. 00:00:00.000                             : en:00:00:00.000
      U5 A& }5 h- A" J$ v+ i9 {. @/ I1 Y3 V
  64. 00:02:29.191                             : en:00:02:29.191
    # Z; t$ g2 |4 a4 h/ F; F
  65. 00:03:31.878                             : en:00:03:31.878
    * S! D5 K. U. R8 U
  66. 00:05:43.885                             : en:00:05:43.885+ A6 g" t/ ?" p
  67. 00:11:46.039                             : en:00:11:46.039
    / J& Y4 u9 M+ R6 C
  68. 00:14:18.649                             : en:00:14:18.649: Y) X7 [9 s! B: }8 N/ a
  69. 00:22:17.169                             : en:00:22:17.169
    : j8 O$ ~* b! @# `* x+ H5 y
  70. 00:26:18.494                             : en:00:26:18.494$ J7 p0 c- g$ v6 p$ e5 f7 ?
  71. 00:32:04.005                             : en:00:32:04.005
    # f, s# A0 W. b; G( F
  72. 00:33:54.366                             : en:00:33:54.3666 c9 Q! C) v' j4 a, \& k0 r$ T
  73. 00:41:52.218                             : en:00:41:52.218
    7 Q' C3 h' R, S5 j# ^
  74. 00:43:10.046                             : en:00:43:10.0469 K% e1 R5 Z; b9 {
  75. 00:48:46.048                             : en:00:48:46.0482 y/ f; J$ m8 z/ K$ {* V
  76. 00:51:25.207                             : en:00:51:25.207
    " ~/ e1 g* N: Q0 {& c' B0 U
  77. 00:52:10.419                             : en:00:52:10.4192 a0 s7 Z9 \% p3 M# F( p
  78. 00:53:11.980                             : en:00:53:11.9801 I. [8 P$ c  i: }- x
  79. 00:55:10.807                             : en:00:55:10.8074 o$ T" H; O5 x  Q3 h+ K9 ]
  80. 01:00:43.139                             : en:01:00:43.139
    ( e. M+ {+ U- }
  81. 01:09:26.329                             : en:01:09:26.329) r/ S6 T: x, c
  82. 01:17:18.509                             : en:01:17:18.509( G2 j+ u" X& S# g$ [
  83. 01:34:26.953                             : en:01:34:26.953
    7 H+ v( b; F3 E% F& d; [* I
  84. 01:54:00.834                             : en:01:54:00.834
    / n, [" g% P0 S2 t" h4 r* S7 Z
  85. 02:01:49.427                             : en:02:01:49.4272 _2 v0 ]6 N7 @* r% o3 p' [
  86. 02:07:42.029                             : en:02:07:42.029
復制代碼

2 C) C) Y7 I* J: f5 o! ^
; A4 G$ T; D0 M* U$ c& p/ r' i8 t% t6 ^2 d% V

& Q) {- A; q* H! s* I5 O5 X. X
# F9 V8 ?- K6 J" [4 j$ q6 F: s! M4 E+ r, [' x

) j0 a! G  o; j. {* ~9 P/ {8 j) G, N2 V/ Z4 p& U) Y. t$ U
& a# b: |* X: y$ ]- o8 x
分享到:  QQ好友和群QQ好友和群
收藏收藏
VIP會員免費任意下載本站所有資源!---點擊開通
回復

使用道具 舉報

級別:一線明星 Lv.8

注冊時間
2019-4-24
最后登錄
2019-12-10
聽眾
14
收聽
0
主題
0
藍光幣
214 枚
貢獻
0 點
沙發
發表于 2019-10-11 16:10:29 | 只看該作者
樓主發貼辛苦了,謝謝樓主分享!我覺得中國高清電影網是注冊對了!
VIP會員免費任意下載本站所有資源!---點擊開通
回復

使用道具 舉報

懶得打字嘛,點擊右側快捷回復 【右側內容,后臺自定義】
您需要登錄后才可以回帖 登錄 | 立即注冊

本版積分規則

QQ|Archiver|手機版|小黑屋| 中國高清網 |網站地圖

GMT+8, 2019-12-10 11:07 , Processed in 0.123935 second(s), 36 queries .

Powered by HDchina X3.4

Copyright 2017-2019©HDchina.All right reserved

返回頂部 聯系我們
必赢客时时彩群计划