查看: 73|回復: 3
打印 上一主題 下一主題

[動作片] 殺戮都市2 Gantz.2.Perfect.Answer.2011.iNTERNAL.720p.BluRay.x264-REGRET 7.65GB

[復制鏈接]

 成長值: 2780

級別:資源管理組

注冊時間
2017-10-20
最后登錄
2019-10-11
聽眾
1
收聽
0
主題
84382
藍光幣
54193 枚
貢獻
8739 點
跳轉到指定樓層
樓主
發表于 2019-9-11 14:03:12 | 只看該作者 |只看大圖 回帖獎勵 |倒序瀏覽 |閱讀模式

6 b. n; q* h6 f5 T6 A8 ]2 t+ ]* r2 X: R, ?6 w/ W" O3 d, o
譯  名 殺戮都市2
  p/ m( F6 H/ ~8 H( P片  名 GANTZ PERFECT ANSWER
' t( \9 T/ }' Q. d% c6 w5 j% e1 r年  代 2011" \8 J) _4 ?& R5 ~
產  地 日本% o# O4 r5 A( U/ o# g
類  別 動作 / 科幻! o# v' k6 z( r! c9 k
語  言 日語6 H7 _$ t- p& v1 Z3 B4 k0 \
上映日期 2011-04-23(日本)8 R4 x% n. _1 b2 z$ Z) O
IMDb評分  6.3/10 from 3576 users
0 P/ V! L* ]: R- X# b+ A- ^IMDb鏈接  http://www.imdb.com/title/tt1525836
" q, P, c7 X+ C* I* }豆瓣評分 6.6/10 from 14118 users
' a1 [1 c  S5 o4 [豆瓣鏈接 https://movie.douban.com/subject/4079119/
) h2 h1 f$ z4 T3 Y片  長 141分鐘% V6 i' ~8 G, k  O
導  演 佐藤信介 Shinsuke Sato! I+ l, d2 x$ G0 W3 |# |
編  劇 渡邊雄介 Y?suke Watanabe / 奧浩哉 Hiroya Oku
0 }$ B* b) V: Y3 H: I主  演 二宮和也 Kazunari Ninomiya
0 d, E! Y  }0 K$ O+ \; f. q4 b# Q       松山研一 Ken'ichi Matsuyama
! {3 t. t% A/ [* V       吉高由里子 Yuriko Yoshitaka1 @8 ~$ F  b4 P: q3 ?
       本鄉奏多 Kanata Hong?( n2 G9 }. o7 |+ q4 t
       夏菜 Natsuna$ F. N) M# W# k( \9 U& Y
       綾野剛 G? Ayano; ~& G: }, X, U8 a2 D1 C; P
       水澤奈子 Nako Mizusawa
2 Y- I" H$ ^; H1 J: G3 s       千阪健介
( @" e7 S" `6 X% Z4 m       白石隼也 Shun'ya Shiraishi
' D" r/ x8 T- W# ~2 X% L8 u       伊藤步 Ayumi Ito
3 Q9 B# f( \. e( I' D       田口智朗 Tomorowo Taguchi
3 _% l0 f7 ~) Z, t/ O8 Y       山田孝之 Takayuki Yamada
4 Q) j. A* r' R/ K       戶田菜穗 Naho Toda3 d0 r4 a5 K' D; |- s

2 G( k+ u# F7 a" N3 P( e: U! R% V0 j+ x; @
標  簽 二宮和也 | 日本電影 | 日本 | 科幻 | 松山健一 | 2011 | 本鄉奏多 | 電影
+ u2 \( S; w  W/ L) f  @
7 T% h. e' M" Q2 a簡  介  & {9 i! P8 f2 D6 d9 U6 c

# r8 @" j8 K5 E( q6 q8 n4 F: e  為了復活死去的好友加藤勝(松山健一 飾)以及其他逝者,玄野計(二宮和也 飾)與戰友們5個月來不斷與各種外星人作戰,贏取更多的分數。在這一過程中,不斷有新丁加入Gantz,而新丁似乎又對這個看似陌生的異類世界有著莫名的熟悉感。某天,本應死去的加藤突然出現在現實世界,這令玄野等人大為不解。而之后的戰斗也顯現出了諸多奇怪之處,比如在與黑衣星人的戰斗中,敵我雙方竟然同時出現在人滿為患的地鐵車廂內,以致于血流成河,引起巨大傷亡。現實與虛幻的界限開始模糊,來勢洶洶的外星人也準備向Gantz的總部發起最后的攻擊……( W7 X1 {( N" ?8 K
  本片根據奧浩哉的同名漫畫改編。3 r! P0 J# D9 b( b
  1. Video0 |3 w& z* v& l3 i' ?- p
  2. ID                                       : 1
    ! N/ G0 C9 G4 P2 B0 P) M# g4 u
  3. Format                                   : AVC6 Q+ l) y0 @5 ?0 D
  4. Format/Info                              : Advanced Video Codec# |; C! r; Q1 l2 X8 O
  5. Format profile                           : <a href="/cdn-cgi/l/email-protection" class="__cf_email__" data-cfemail="8bc3e2ece3cbc7bfa5ba">[email protected]</a>
    1 ]4 e; X7 p" Q8 n' V  w+ l
  6. Format settings                          : CABAC / 5 Ref Frames
    1 f" T2 e. b, e. I8 U
  7. Format settings, CABAC                   : Yes
    5 a; j7 i( c( {" m
  8. Format settings, Reference frames        : 5 frames# |4 d; d0 X1 q& ^
  9. Codec ID                                 : V_MPEG4/ISO/AVC
    9 _$ B% |5 x8 G+ t/ J
  10. Duration                                 : 2 h 21 min; ]+ \# V# C/ p8 S+ |0 V
  11. Bit rate                                 : 4 700 kb/s
    2 d) G' U+ y9 G* w; m3 c: N1 V; l5 h
  12. Width                                    : 1 280 pixels
    ; ?# J( r- d% S
  13. Height                                   : 688 pixels
    * S" T9 w3 W. a. P: q" r1 n0 T9 M
  14. Display aspect ratio                     : 1.85:1
    # }4 D1 `+ y9 v$ \2 P! L- {
  15. Frame rate mode                          : Constant' \# s3 P; ?9 ?6 N$ s/ I8 J! F
  16. Frame rate                               : 23.976 (24000/1001) FPS  P2 H9 H( @. k9 c( h- f. P) F
  17. Color space                              : YUV
    ( A) T: `8 L) p( G) d; h4 H  V
  18. Chroma subsampling                       : 4:2:0+ \% W" g3 f/ D3 W8 L8 K# r
  19. Bit depth                                : 8 bits0 W+ `/ g$ U9 k4 q' ]. r) h( Q
  20. Scan type                                : Progressive! U2 n3 z6 b7 x- k! o
  21. Bits/(Pixel*Frame)                       : 0.223
    $ \* M- b% ^3 |; ^8 Q
  22. Stream size                              : 4.65 GiB (61%)
    & ]0 ^8 x8 B. u9 K1 {2 j$ S7 h
  23. Writing library                          : x264 core 157 r2970 5493be8
    . X! Z. M9 _4 _$ m: W  m; ^; N
  24. Encoding settings                        : cabac=1 / ref=5 / deblock=1:-3:-3 / analyse=0x3:0x133 / me=umh / subme=9 / psy=1 / psy_rd=1.00:0.00 / mixed_ref=1 / me_range=16 / chroma_me=1 / trellis=2 / 8x8dct=1 / cqm=0 / deadzone=21,11 / fast_pskip=0 / chroma_qp_offset=-2 / threads=21 / lookahead_threads=1 / sliced_threads=0 / nr=0 / decimate=1 / interlaced=0 / bluray_compat=0 / constrained_intra=0 / bframes=3 / b_pyramid=2 / b_adapt=1 / b_bias=0 / direct=3 / weightb=1 / open_gop=0 / weightp=2 / keyint=240 / keyint_min=24 / scenecut=40 / intra_refresh=0 / rc_lookahead=50 / rc=2pass / mbtree=1 / bitrate=4700 / ratetol=1.0 / qcomp=0.60 / qpmin=0 / qpmax=69 / qpstep=4 / cplxblur=20.0 / qblur=0.5 / ip_ratio=1.40 / aq=1:1.001 v- ~$ a. [) k' K. R; W* A
  25. Language                                 : English/ f2 I8 i6 r% U; R7 D* A
  26. Default                                  : Yes5 o/ n% v. ^' ~
  27. Forced                                   : No
    - k* x1 y6 _& ~; K2 p9 m3 Z$ |3 |( I% C1 O
  28. - ]% U5 J( u4 \0 H+ D+ I
  29. Audio #1* l$ G: W& c' c4 Y: g4 Y  Y' m' O
  30. ID                                       : 2$ I0 J3 Q% D* ]' `
  31. Format                                   : DTS
    ) q1 V% {% t. ?
  32. Format/Info                              : Digital Theater Systems4 E& E2 E4 T( e2 h$ I
  33. Codec ID                                 : A_DTS& s7 d) Z) b2 q1 r2 A) x! x
  34. Duration                                 : 2 h 21 min
    $ ^3 H0 k" I& }& J- v3 A# g7 \1 w
  35. Bit rate mode                            : Constant
    . g4 a/ l2 M- i# g& Y
  36. Bit rate                                 : 1 509 kb/s4 ]. U* D6 Y& G( B
  37. Channel(s)                               : 6 channels
    - M- S4 y/ g/ F" E5 q) a! G$ u
  38. Channel layout                           : C L R Ls Rs LFE) Z: O0 A  I! f! P$ f% K
  39. Sampling rate                            : 48.0 kHz
    2 v7 D" D- Y. M. `
  40. Frame rate                               : 93.750 FPS (512 SPF)" h' H8 |4 ^- u$ x, y2 T' F- [
  41. Bit depth                                : 24 bits" ]6 g- U. T: s/ K9 E
  42. Compression mode                         : Lossy6 A1 }" a( S/ d: C9 Y
  43. Stream size                              : 1.49 GiB (20%), ^$ [3 a8 E$ w
  44. Language                                 : Japanese+ o3 f, Z" }8 {; h5 |" F
  45. Default                                  : Yes
    4 u# Q- P6 R1 }
  46. Forced                                   : No
      C& D- R# v9 P* N, g- f
  47. 4 G0 ]4 p  N* R' c! t, x& y
  48. Audio #2# y9 [  l* M2 p3 {
  49. ID                                       : 3
    ' [5 _0 x, I* L
  50. Format                                   : DTS2 \7 X6 W. W3 c- {
  51. Format/Info                              : Digital Theater Systems
    8 m4 {- I0 K2 t$ T  Y6 p5 J
  52. Codec ID                                 : A_DTS$ e7 c7 z0 X- q' {, N
  53. Duration                                 : 2 h 21 min
    2 E& Y! D4 h2 }) g1 |% |. F: b- k
  54. Bit rate mode                            : Constant
    ) u# C3 V- f' l  G2 A( p0 z  B
  55. Bit rate                                 : 1 509 kb/s
    : X, m3 @0 }* q+ O5 E! V
  56. Channel(s)                               : 6 channels
    " }( `$ p. w7 a1 {2 }
  57. Channel layout                           : C L R Ls Rs LFE! G: `  C7 k; a, t' v# g$ }& f% o
  58. Sampling rate                            : 48.0 kHz$ O0 K- L3 y5 r8 k
  59. Frame rate                               : 93.750 FPS (512 SPF)
    ! F+ F1 w$ K% W
  60. Bit depth                                : 24 bits4 P, G, P; V! A
  61. Compression mode                         : Lossy
    6 `; F: {$ u" l& m1 u
  62. Stream size                              : 1.49 GiB (20%)
    * g; ?2 P5 X: z& g
  63. Language                                 : English. r' h$ m9 [% D
  64. Default                                  : No
    5 K( o9 B3 e+ i  Y8 H' o9 z
  65. Forced                                   : No# G2 o3 W6 l+ T8 m: N$ W
  66. , Y0 m9 R0 q9 z, z0 r( t* b
  67. Text #1  G4 R2 {6 Z; C5 p4 {; i
  68. ID                                       : 4$ }; j8 y6 F6 H& X
  69. Format                                   : UTF-8+ k  T6 K! |1 {) D, W
  70. Codec ID                                 : S_TEXT/UTF8
    * m+ p2 ^( M/ Z, n3 \) p8 _) c9 d
  71. Codec ID/Info                            : UTF-8 Plain Text$ q) C3 c, z7 C3 |
  72. Duration                                 : 2 h 21 min
    " R) U2 z% a  O* d: O& \+ i
  73. Bit rate                                 : 21 b/s/ @9 L. _) c& P& W, W
  74. Count of elements                        : 798
    - c  I! o! v8 X) y5 x- ^+ Q2 s6 H( i4 Z
  75. Stream size                              : 22.5 KiB (0%)$ M# i  ^1 `) ]: S
  76. Title                                    : English
    * P8 R7 T; T8 w& D! W0 \/ @
  77. Language                                 : English
    3 t' M3 N' ]# _
  78. Default                                  : Yes! g& y0 m6 N0 a* }5 w" u
  79. Forced                                   : Yes* m/ U! F: ~3 g1 A) m* z- V1 n

  80. ; u  K) g5 A# J1 H4 A( D
  81. Text #2
    & [2 q5 {! V8 a% a8 A/ X3 V
  82. ID                                       : 57 r0 t7 O, I: [4 I# z8 Y  [/ S
  83. Format                                   : UTF-8$ g, W+ F$ e# s
  84. Codec ID                                 : S_TEXT/UTF8! u. L" q% n0 X% f; {
  85. Codec ID/Info                            : UTF-8 Plain Text
    - p7 J# V; |& D( `3 g& N0 Y: D0 I: r
  86. Duration                                 : 2 h 20 min
    ) \4 [! |1 ?9 ~6 g
  87. Bit rate                                 : 3 b/s! i$ X; i# f! T& U  u( T
  88. Count of elements                        : 112! ^3 Z5 m" H) x6 O
  89. Stream size                              : 3.13 KiB (0%)
    - G- l! x5 m" e% j0 @
  90. Title                                    : Forced subtitles for English audio
    # G) `" J0 V6 |* ?
  91. Language                                 : English, G. i5 R7 D$ b( b& S
  92. Default                                  : No$ d) _+ s7 g3 C- K, G. T5 B
  93. Forced                                   : No
    5 u2 T* y1 X. K) f" r% v, g
  94. 6 \5 B4 i& z+ v' S$ s# f( i3 p
  95. Menu
    : f# t* `9 Y* t
  96. 00:00:00.000                             : en:00:00:00.000
    # s' L0 i* Y* R# h: {
  97. 00:02:37.199                             : en:00:02:37.199' b  r' g& R9 j1 [/ z0 j" M
  98. 00:09:39.996                             : en:00:09:39.996& A  A. h3 X" H3 i8 W3 g' z
  99. 00:15:27.009                             : en:00:15:27.009
    ( n& _+ s. z+ O, w, Z5 Q
  100. 00:22:49.910                             : en:00:22:49.910
    # D' W% Y8 f' _4 ~/ ~- E
  101. 00:29:45.117                             : en:00:29:45.117+ G$ k, Y7 |7 Y2 ]& b
  102. 00:40:05.820                             : en:00:40:05.820
    4 r( r5 V+ O+ F
  103. 00:47:14.040                             : en:00:47:14.040
    ; G, ^" S( j& a0 V0 p8 [
  104. 00:50:37.201                             : en:00:50:37.201
    0 ~9 R9 m8 n% N5 ^- `. u
  105. 00:58:09.361                             : en:00:58:09.361
    , ^# m$ t9 |: ~; s- o' q0 m
  106. 01:07:23.248                             : en:01:07:23.2485 L/ M( }' D' r  h- n5 t" j
  107. 01:15:48.878                             : en:01:15:48.878
    $ J4 |; e3 X6 N
  108. 01:23:47.940                             : en:01:23:47.940
    , m, \+ l0 K* S! o- i9 a7 X5 H) s% N. x
  109. 01:35:11.623                             : en:01:35:11.6239 f" y- @7 Z! [! w, w
  110. 01:40:08.085                             : en:01:40:08.085
    ( k! ^: ^/ n2 f% }4 e) U
  111. 01:49:02.953                             : en:01:49:02.953
    5 Q$ }' h" G- b; M: e+ v! Q; o
  112. 01:57:25.455                             : en:01:57:25.455* N4 ^. w/ ^0 `6 t1 v
  113. 02:08:28.701                             : en:02:08:28.7012 o* s+ A8 ?0 m; `
  114. 02:16:46.698                             : en:02:16:46.6984 K5 j3 r$ s* F2 j" S
  115. 02:21:29.481                             : en:02:21:29.481
復制代碼
7 d9 k" Z" |4 ^
* @# n! n6 V' K! _; e2 G

9 U" g% d( }4 \8 n8 v- Q- v; z0 k5 V8 A( Y7 t* B. k3 ]' g
5 q5 \- ~. I7 |
2 p- m( O0 k+ O7 |
% N% x1 W* R- d, D

! q6 z0 G9 _( ]% E& \; j4 l2 }& Q
分享到:  QQ好友和群QQ好友和群
收藏收藏
VIP會員免費任意下載本站所有資源!---點擊開通
回復

使用道具 舉報

級別:領銜主演 Lv.6

注冊時間
2019-4-24
最后登錄
2019-10-11
聽眾
13
收聽
0
主題
0
藍光幣
136 枚
貢獻
0 點
沙發
發表于 2019-9-11 16:59:21 | 只看該作者
樓主發貼辛苦了,謝謝樓主分享!我覺得中國高清電影網是注冊對了!
VIP會員免費任意下載本站所有資源!---點擊開通
回復

使用道具 舉報

級別:榮升主角 Lv.5

注冊時間
2018-2-26
最后登錄
2019-10-11
聽眾
15
收聽
0
主題
0
藍光幣
298 枚
貢獻
0 點
板凳
發表于 2019-9-12 09:31:58 | 只看該作者
樓主發貼辛苦了,謝謝樓主分享!我覺得中國高清電影網是注冊對了!
VIP會員免費任意下載本站所有資源!---點擊開通
回復

使用道具 舉報

級別:初級觀眾 Lv.1

注冊時間
2019-10-11
最后登錄
2019-10-11
聽眾
0
收聽
0
主題
0
藍光幣
0 枚
貢獻
0 點
地板
發表于 半小時前 | 只看該作者
感謝樓主,找了很久的高清版終于找到了
VIP會員免費任意下載本站所有資源!---點擊開通
回復

使用道具 舉報

懶得打字嘛,點擊右側快捷回復 【右側內容,后臺自定義】
您需要登錄后才可以回帖 登錄 | 立即注冊

本版積分規則

QQ|Archiver|手機版|小黑屋| 中國高清網 |網站地圖

GMT+8, 2019-10-11 16:58 , Processed in 0.679264 second(s), 38 queries .

Powered by HDchina X3.4

Copyright 2017-2019©HDchina.All right reserved

返回頂部 聯系我們
必赢客时时彩群计划