查看: 140|回復: 3
打印 上一主題 下一主題

[動作片] 殺戮都市/殺戮都市1 Gantz.2010.PROPER.1080p.BluRay.x264-REGRET 10.93GB

[復制鏈接]

 成長值: 2780

級別:資源管理組

注冊時間
2017-10-20
最后登錄
2019-10-11
聽眾
1
收聽
0
主題
84383
藍光幣
54193 枚
貢獻
8740 點
跳轉到指定樓層
樓主
發表于 2019-8-8 22:54:28 | 只看該作者 |只看大圖 回帖獎勵 |倒序瀏覽 |閱讀模式


譯  名 殺戮都市 / 殺戮都市1
片  名 GANTZ
年  代 2010
產  地 日本
類  別 動作 / 科幻
語  言 日語
上映日期 2010-11-29(東京首映) / 2011-01-29(日本)
IMDb評分  6.5/10 from 6518 users
IMDb鏈接  http://www.imdb.com/title/tt1525835
豆瓣評分 6.6/10 from 18381 users
豆瓣鏈接 https://movie.douban.com/subject/4079117/
片  長 130分鐘
導  演 佐藤信介 Shinsuke Sato
編  劇 渡邊雄介 Y?suke Watanabe
主  演 二宮和也 Kazunari Ninomiya
      松山研一 Ken'ichi Matsuyama
      吉高由里子 Yuriko Yoshitaka
      本鄉奏多 Kanata Hong?
      夏菜 Natsuna
      綾野剛 G? Ayano
      水澤奈子 Nako Mizusawa
      千阪健介
      白石隼也 Shun'ya Shiraishi
      伊藤步 Ayumi Ito
      田口智朗 Tomorowo Taguchi
      山田孝之 Takayuki Yamada


標  簽 日本電影 | 日本 | 二宮和也 | 松山健一 | 科幻 | 本鄉奏多 | 二宮和也 | 吉高由里子

簡  介  

  某個平凡的傍晚,大學生玄野計(二宮和也 飾)在電車站重逢初中時代的好友加藤勝(松山健一 飾)。為了救助一個跌落鐵軌的男子,他們二人遭到電車的強烈撞擊。然而轉眼之間,他們便毫發無損地來到一間密閉的屋子內。這里還有另外七個男人以及一個巨大的黑色球體。根據黑球的指示,這群人需要穿上戰服拿起武器去刺殺蔥星人。有的人為了獎金投入了殺戮游戲,有的人為了生存而冷酷無情。生死關頭,懦弱的阿計和善良的阿勝也不得不投入其中,而前方還有更多的考驗等待著他們。此外,名為GANTZ的系統又隱藏著怎樣的秘密?
本片分前后篇兩部,根據漫畫家奧浩哉的同名原著改編。

獲獎情況  

  第6屆亞洲電影大獎(2012)
  最佳視覺效果(提名) 神谷誠



  1. Video
  2. ID                                       : 1
  3. Format                                   : AVC
  4. Format/Info                              : Advanced Video Codec
  5. Format profile                           : <a href="/cdn-cgi/l/email-protection" class="__cf_email__" data-cfemail="1058797778505c243e21">[email protected]</a>
  6. Format settings                          : CABAC / 4 Ref Frames
  7. Format settings, CABAC                   : Yes
  8. Format settings, ReFrames                : 4 frames
  9. Codec ID                                 : V_MPEG4/ISO/AVC
  10. Duration                                 : 2 h 10 min
  11. Bit rate                                 : 8 935 kb/s
  12. Width                                    : 1 920 pixels
  13. Height                                   : 1 040 pixels
  14. Display aspect ratio                     : 1.85:1
  15. Frame rate mode                          : Constant
  16. Frame rate                               : 23.976 (24000/1001) FPS
  17. Color space                              : YUV
  18. Chroma subsampling                       : 4:2:0
  19. Bit depth                                : 8 bits
  20. Scan type                                : Progressive
  21. Bits/(Pixel*Frame)                       : 0.187
  22. Stream size                              : 8.17 GiB (75%)
  23. Writing library                          : x264 core 157 r2935 545de2f
  24. Encoding settings                        : cabac=1 / ref=4 / deblock=1:-3:-3 / analyse=0x3:0x133 / me=umh / subme=9 / psy=1 / psy_rd=1.00:0.00 / mixed_ref=1 / me_range=16 / chroma_me=1 / trellis=2 / 8x8dct=1 / cqm=0 / deadzone=21,11 / fast_pskip=0 / chroma_qp_offset=-2 / threads=24 / lookahead_threads=2 / sliced_threads=0 / nr=0 / decimate=1 / interlaced=0 / bluray_compat=0 / constrained_intra=0 / bframes=3 / b_pyramid=2 / b_adapt=1 / b_bias=0 / direct=3 / weightb=1 / open_gop=0 / weightp=2 / keyint=240 / keyint_min=24 / scenecut=40 / intra_refresh=0 / rc_lookahead=50 / rc=2pass / mbtree=1 / bitrate=8935 / ratetol=1.0 / qcomp=0.60 / qpmin=0 / qpmax=69 / qpstep=4 / cplxblur=20.0 / qblur=0.5 / ip_ratio=1.40 / aq=1:1.00
  25. Language                                 : English
  26. Default                                  : Yes
  27. Forced                                   : No

  28. Audio #1
  29. ID                                       : 2
  30. Format                                   : DTS
  31. Format/Info                              : Digital Theater Systems
  32. Codec ID                                 : A_DTS
  33. Duration                                 : 2 h 10 min
  34. Bit rate mode                            : Constant
  35. Bit rate                                 : 1 509 kb/s
  36. Channel(s)                               : 6 channels
  37. Channel layout                           : C L R Ls Rs LFE
  38. Sampling rate                            : 48.0 kHz
  39. Frame rate                               : 93.750 FPS (512 SPF)
  40. Bit depth                                : 24 bits
  41. Compression mode                         : Lossy
  42. Stream size                              : 1.38 GiB (13%)
  43. Language                                 : Japanese
  44. Default                                  : Yes
  45. Forced                                   : No

  46. Audio #2
  47. ID                                       : 3
  48. Format                                   : DTS
  49. Format/Info                              : Digital Theater Systems
  50. Codec ID                                 : A_DTS
  51. Duration                                 : 2 h 10 min
  52. Bit rate mode                            : Constant
  53. Bit rate                                 : 1 509 kb/s
  54. Channel(s)                               : 6 channels
  55. Channel layout                           : C L R Ls Rs LFE
  56. Sampling rate                            : 48.0 kHz
  57. Frame rate                               : 93.750 FPS (512 SPF)
  58. Bit depth                                : 24 bits
  59. Compression mode                         : Lossy
  60. Stream size                              : 1.38 GiB (13%)
  61. Language                                 : English
  62. Default                                  : No
  63. Forced                                   : No

  64. Text #1
  65. ID                                       : 4
  66. Format                                   : UTF-8
  67. Codec ID                                 : S_TEXT/UTF8
  68. Codec ID/Info                            : UTF-8 Plain Text
  69. Duration                                 : 2 h 8 min
  70. Bit rate                                 : 20 b/s
  71. Count of elements                        : 747
  72. Stream size                              : 19.2 KiB (0%)
  73. Title                                    : English
  74. Language                                 : English
  75. Default                                  : Yes
  76. Forced                                   : Yes

  77. Text #2
  78. ID                                       : 5
  79. Format                                   : UTF-8
  80. Codec ID                                 : S_TEXT/UTF8
  81. Codec ID/Info                            : UTF-8 Plain Text
  82. Duration                                 : 2 h 8 min
  83. Bit rate                                 : 2 b/s
  84. Count of elements                        : 85
  85. Stream size                              : 2.70 KiB (0%)
  86. Title                                    : Forced subtitles for English audio
  87. Language                                 : English
  88. Default                                  : No
  89. Forced                                   : No

  90. Menu
  91. 00:00:00.000                             : en:00:00:00.000
  92. 00:04:53.293                             : en:00:04:53.293
  93. 00:09:32.572                             : en:00:09:32.572
  94. 00:15:44.318                             : en:00:15:44.318
  95. 00:19:14.528                             : en:00:19:14.528
  96. 00:26:38.889                             : en:00:26:38.889
  97. 00:32:46.965                             : en:00:32:46.965
  98. 00:37:50.268                             : en:00:37:50.268
  99. 00:43:49.669                             : en:00:43:49.669
  100. 00:51:36.218                             : en:00:51:36.218
  101. 00:58:54.698                             : en:00:58:54.698
  102. 01:09:04.557                             : en:01:09:04.557
  103. 01:23:32.507                             : en:01:23:32.507
  104. 01:35:19.213                             : en:01:35:19.213
  105. 01:45:34.161                             : en:01:45:34.161
  106. 01:52:18.649                             : en:01:52:18.649
  107. 01:55:49.776                             : en:01:55:49.776
  108. 02:03:02.584                             : en:02:03:02.584
  109. 02:09:35.768                             : en:02:09:35.768
  110. 02:10:36.829                             : en:02:10:36.829
復制代碼









分享到:  QQ好友和群QQ好友和群
收藏收藏
VIP會員免費任意下載本站所有資源!---點擊開通
回復

使用道具 舉報

級別:普通觀眾 Lv.2

注冊時間
2019-8-9
最后登錄
2019-10-9
聽眾
1
收聽
0
主題
0
藍光幣
0 枚
貢獻
0 點
沙發
發表于 2019-8-9 08:54:36 | 只看該作者
有組織的感覺真好,請收下我的膝蓋。感謝樓主發布佳片。
VIP會員免費任意下載本站所有資源!---點擊開通
回復

使用道具 舉報

級別:專業龍套 Lv.4

注冊時間
2019-1-18
最后登錄
2019-10-10
聽眾
13
收聽
0
主題
0
藍光幣
365 枚
貢獻
0 點
板凳
發表于 2019-8-9 14:36:04 | 只看該作者
樓主辛苦了,謝謝分享
VIP會員免費任意下載本站所有資源!---點擊開通
回復

使用道具 舉報

級別:初級觀眾 Lv.1

注冊時間
2019-10-11
最后登錄
2019-10-11
聽眾
0
收聽
0
主題
0
藍光幣
0 枚
貢獻
0 點
地板
發表于 半小時前 | 只看該作者
感謝樓主,終于可以看高清的了
VIP會員免費任意下載本站所有資源!---點擊開通
回復

使用道具 舉報

懶得打字嘛,點擊右側快捷回復 【右側內容,后臺自定義】
您需要登錄后才可以回帖 登錄 | 立即注冊

本版積分規則

QQ|Archiver|手機版|小黑屋| 中國高清網 |網站地圖

GMT+8, 2019-10-11 17:01 , Processed in 0.336878 second(s), 38 queries .

Powered by HDchina X3.4

Copyright 2017-2019©HDchina.All right reserved

返回頂部 聯系我們
必赢客时时彩群计划