查看: 247|回復: 3
打印 上一主題 下一主題

[10bit.HDR] 超凡蜘蛛俠/蜘蛛俠:驚世現新 The.Amazing.Spider-Man.2012.2160p.BluRay.x265.10bit.HDR.TrueHD.7.1.Atmos-TERMiNAL 16.22GB

[復制鏈接]

 成長值: 2780

級別:資源管理組

注冊時間
2017-10-20
最后登錄
2019-10-11
聽眾
1
收聽
0
主題
84385
藍光幣
54193 枚
貢獻
8742 點
跳轉到指定樓層
樓主
發表于 2017-12-18 22:38:11 | 只看該作者 |只看大圖 回帖獎勵 |倒序瀏覽 |閱讀模式

◎譯  名 超凡蜘蛛俠/蜘蛛俠:驚世現新/蜘蛛人:驚奇再起/神奇蜘蛛俠/蜘蛛俠前傳/蜘蛛俠4/新蜘蛛俠
◎片  名 The Amazing Spider-Man
◎年  代 2012
◎產  地 美國
◎類  別 動作/科幻/冒險
◎語  言 英語
◎上映日期 2012-07-03(美國)/2012-08-27(中國大陸)
◎IMDb評分  7.0/10 from 489,400 users
◎IMDb鏈接  http://www.imdb.com/title/tt0948470/
◎豆瓣評分 7.2/10 from 148,211 users
◎豆瓣鏈接 https://movie.douban.com/subject/2129132/
◎片  長 136分鐘(美國/中國大陸)
◎導  演 馬克·韋布 Marc Webb
◎主  演 安德魯·加菲爾德 Andrew Garfield
      艾瑪·斯通 Emma Stone
      瑞斯·伊凡斯 Rhys Ifans
      馬丁·辛 Martin Sheen
      莎莉·菲爾德 Sally Field
      C·托馬斯·豪威爾 C. Thomas Howell
      丹尼斯·利瑞 Denis Leary
      朱麗安妮·尼科爾森 Julianne Nicholson
      坎貝爾·斯科特 Campbell Scott
      安妮·帕里西 Annie Parisse
      伊爾凡·可汗 Irrfan Khan
      邁爾斯·艾略特 Miles Elliot
      漢娜·馬克斯 Hannah Marks

◎簡  介

  童年的一起突發事件,令彼得·帕克(安德魯·加菲爾德 Andrew Garfield 飾)和父母生離死別。轉眼彼得成為一名高中生,他偶然發現父親的公文包,并從叔父本(馬丁·辛 Martin Sheen 飾)處得到線索,于是啟程前往奧斯庫公司拜訪父親當年的合作伙伴——科特·康納斯博士(瑞斯·伊凡斯 Rhys Ifans 飾)。在公司內四處尋找線索的彼得意外被蜘蛛咬了一口,回程途中他的身體發生奇異的變化。在康納斯博士德引導下,彼得不斷了解并發掘體內著超乎尋常的能力,喜怒哀樂,各種意想不到的事情迅速向他襲來。直到某日,他便成了影響深遠的超級戰士蜘蛛俠。
  而城市內也出現了兇惡的蜥蜴人,彼得不平凡的人生就此展開……

◎獲獎情況

  第40屆動畫安妮獎  (2013)
  最佳真人電影動畫效果(提名)
  最佳真人電影動畫角色(提名) Atsushi Sato / Roger Vizard / Max Tyrie

  第19屆美國演員工會獎  (2013)
  電影最佳特技群戲(提名) Tony Angelotti / Andy Armstrong / Keith Adams / 維克·阿姆斯特朗 / Nina Armstrong

  第14屆美國青少年選擇獎  (2012)
  最佳電影反派(提名) 瑞斯·伊凡斯
  最佳暑期動作冒險電影(提名)
  最佳暑期電影男演員(提名) 安德魯·加菲爾德
  最佳暑期電影女演員(提名) 艾瑪·斯通

  第3屆豆瓣電影鑫像獎  (2013)
  鑫豆單元 最佳視覺效果(提名)


  1. Video
  2. ID                                       : 1
  3. Format                                   : HEVC
  4. Format/Info                              : High Efficiency Video Coding
  5. Format profile                           : Main [url=mailto:[email protected]][email protected][/url]@High
  6. Codec ID                                 : V_MPEGH/ISO/HEVC
  7. Duration                                 : 2 h 16 min
  8. Bit rate                                 : 10.7 Mb/s
  9. Width                                    : 3 840 pixels
  10. Height                                   : 1 606 pixels
  11. Display aspect ratio                     : 2.40:1
  12. Frame rate mode                          : Constant
  13. Frame rate                               : 23.976 (24000/1001) FPS
  14. Color space                              : YUV
  15. Chroma subsampling                       : 4:2:0 (Type 2)
  16. Bit depth                                : 10 bits
  17. Bits/(Pixel*Frame)                       : 0.072
  18. Stream size                              : 10.2GB (63%)
  19. Writing library                          : x265 2.5+58-06979c042350:[Windows][GCC 6.2.1][64 bit] 10bit
  20. Encoding settings                        : cpuid=1050111 / frame-threads=5 / numa-pools=38,0 / wpp / no-pmode / no-pme / no-psnr / no-ssim / log-level=2 / input-csp=1 / input-res=3840x1606 / interlace=0 / total-frames=196056 / level-idc=51 / high-tier=1 / uhd-bd=0 / ref=4 / no-allow-non-conformance / repeat-headers / annexb / aud / hrd / info / hash=0 / no-temporal-layers / no-open-gop / min-keyint=1 / keyint=24 / bframes=4 / b-adapt=2 / b-pyramid / bframe-bias=0 / rc-lookahead=25 / lookahead-slices=4 / scenecut=40 / no-intra-refresh / ctu=64 / min-cu-size=8 / rect / no-amp / max-tu-size=32 / tu-inter-depth=1 / tu-intra-depth=1 / limit-tu=0 / rdoq-level=2 / dynamic-rd=0.00 / no-ssim-rd / signhide / no-tskip / nr-intra=0 / nr-inter=0 / no-constrained-intra / no-strong-intra-smoothing / max-merge=3 / limit-refs=3 / limit-modes / me=3 / subme=3 / merange=57 / temporal-mvp / weightp / no-weightb / no-analyze-src-pics / deblock=-3:-3 / no-sao / no-sao-non-deblock / rd=4 / no-early-skip / rskip / no-fast-intra / no-tskip-fast / no-cu-lossless / no-b-intra / no-splitrd-skip / rdpenalty=0 / psy-rd=2.00 / psy-rdoq=1.00 / no-rd-refine / analysis-reuse-mode=0 / no-lossless / cbqpoffs=0 / crqpoffs=0 / rc=crf / crf=17.0 / qcomp=0.60 / qpstep=4 / stats-write=0 / stats-read=0 / vbv-maxrate=160000 / vbv-bufsize=160000 / vbv-init=0.9 / crf-max=0.0 / crf-min=0.0 / ipratio=1.40 / pbratio=1.30 / aq-mode=1 / aq-strength=1.00 / cutree / zone-count=0 / no-strict-cbr / qg-size=32 / no-rc-grain / qpmax=69 / qpmin=0 / no-const-vbv / sar=1 / overscan=0 / videoformat=5 / range=0 / colorprim=9 / transfer=16 / colormatrix=9 / chromaloc=1 / chromaloc-top=2 / chromaloc-bottom=2 / display-window=0 / master-display=G(13250,34500)B(7500,3000)R(34000,16000)WP(15635,16450)L(40000000,50) / max-cll=4809,1138 / min-luma=0 / max-luma=1023 / log2-max-poc-lsb=8 / vui-timing-info / vui-hrd-info / slices=1 / no-opt-qp-pps / no-opt-ref-list-length-pps / no-multi-pass-opt-rps / scenecut-bias=0.05 / no-opt-cu-delta-qp / no-aq-motion / hdr / hdr-opt / no-dhdr10-opt / analysis-reuse-level=5 / scale-factor=0 / refine-intra=0 / refine-inter=0 / refine-mv=0 / no-limit-sao / ctu-info=0 / no-lowpass-dct / refine-mv-type=0 / copy-pic=1
  21. Default                                  : Yes
  22. Forced                                   : No
  23. Color range                              : Limited
  24. Color primaries                          : BT.2020
  25. Transfer characteristics                 : PQ
  26. Matrix coefficients                      : BT.2020 non-constant
  27. Mastering display color primaries        : R: x=0.680000 y=0.320000, G: x=0.265000 y=0.690000, B: x=0.150000 y=0.060000, White point: x=0.312700 y=0.329000
  28. Mastering display luminance              : min: 0.0050 cd/m2, max: 4000.0000 cd/m2
  29. Maximum Content Light Level              : 4809 cd/m2
  30. Maximum Frame-Average Light Level        : 1138 cd/m2

  31. Audio #1
  32. ID                                       : 2
  33. Format                                   : TrueHD
  34. Format profile                           : TrueHD+Atmos / TrueHD
  35. Codec ID                                 : A_TRUEHD
  36. Duration                                 : 2 h 16 min
  37. Bit rate mode                            : Variable
  38. Bit rate                                 : 5 191 kb/s
  39. Maximum bit rate                         : 8 358 kb/s
  40. Channel(s)                               : Object Based / 8 channels
  41. Channel positions                        : Object Based / Front: L C R, Side: L R, Back: L R, LFE
  42. Sampling rate                            :  / 48.0 kHz
  43. Frame rate                               : 1 200.000 FPS (40 SPF)
  44. Compression mode                         : Lossless
  45. Stream size                              : 4.94GB (31%)
  46. Language                                 : English
  47. Default                                  : Yes
  48. Forced                                   : No

  49. Audio #2
  50. ID                                       : 3
  51. Format                                   : AC-3
  52. Format/Info                              : Audio Coding 3
  53. Codec ID                                 : A_AC3
  54. Duration                                 : 2 h 16 min
  55. Bit rate mode                            : Constant
  56. Bit rate                                 : 640 kb/s
  57. Channel(s)                               : 6 channels
  58. Channel positions                        : Front: L C R, Side: L R, LFE
  59. Sampling rate                            : 48.0 kHz
  60. Frame rate                               : 31.250 FPS (1536 SPF)
  61. Bit depth                                : 16 bits
  62. Compression mode                         : Lossy
  63. Stream size                              : 624 MiB (4%)
  64. Language                                 : English
  65. Service kind                             : Complete Main
  66. Default                                  : No
  67. Forced                                   : No

  68. Text #1
  69. ID                                       : 4
  70. Format                                   : PGS
  71. Muxing mode                              : zlib
  72. Codec ID                                 : S_HDMV/PGS
  73. Codec ID/Info                            : Picture based subtitle format used on BDs/HD-DVDs
  74. Duration                                 : 2 h 15 min
  75. Bit rate                                 : 23.8 kb/s
  76. Count of elements                        : 2720
  77. Stream size                              : 23.0 MiB (0%)
  78. Title                                    : American English
  79. Language                                 : English
  80. Default                                  : No
  81. Forced                                   : No

  82. Text #2
  83. ID                                       : 5
  84. Format                                   : PGS
  85. Muxing mode                              : zlib
  86. Codec ID                                 : S_HDMV/PGS
  87. Codec ID/Info                            : Picture based subtitle format used on BDs/HD-DVDs
  88. Duration                                 : 2 h 14 min
  89. Bit rate                                 : 28.4 kb/s
  90. Count of elements                        : 3466
  91. Stream size                              : 27.2 MiB (0%)
  92. Title                                    : American English SDH
  93. Language                                 : English
  94. Default                                  : No
  95. Forced                                   : No

  96. Text #3
  97. ID                                       : 6
  98. Format                                   : PGS
  99. Muxing mode                              : zlib
  100. Codec ID                                 : S_HDMV/PGS
  101. Codec ID/Info                            : Picture based subtitle format used on BDs/HD-DVDs
  102. Duration                                 : 2 h 15 min
  103. Bit rate                                 : 23.8 kb/s
  104. Count of elements                        : 2726
  105. Stream size                              : 23.0 MiB (0%)
  106. Title                                    : British English
  107. Language                                 : English
  108. Default                                  : No
  109. Forced                                   : No

  110. Text #4
  111. ID                                       : 7
  112. Format                                   : PGS
  113. Muxing mode                              : zlib
  114. Codec ID                                 : S_HDMV/PGS
  115. Codec ID/Info                            : Picture based subtitle format used on BDs/HD-DVDs
  116. Duration                                 : 2 h 15 min
  117. Bit rate                                 : 28.1 kb/s
  118. Count of elements                        : 3470
  119. Stream size                              : 27.3 MiB (0%)
  120. Title                                    : British English SDH
  121. Language                                 : English
  122. Default                                  : No
  123. Forced                                   : No

  124. Text #5
  125. ID                                       : 8
  126. Format                                   : PGS
  127. Muxing mode                              : zlib
  128. Codec ID                                 : S_HDMV/PGS
  129. Codec ID/Info                            : Picture based subtitle format used on BDs/HD-DVDs
  130. Duration                                 : 2 h 15 min
  131. Bit rate                                 : 19.1 kb/s
  132. Count of elements                        : 3134
  133. Stream size                              : 18.5 MiB (0%)
  134. Language                                 : Chinese
  135. Default                                  : No
  136. Forced                                   : No

  137. Text #6
  138. ID                                       : 9
  139. Format                                   : PGS
  140. Muxing mode                              : zlib
  141. Codec ID                                 : S_HDMV/PGS
  142. Codec ID/Info                            : Picture based subtitle format used on BDs/HD-DVDs
  143. Duration                                 : 2 h 15 min
  144. Bit rate                                 : 22.6 kb/s
  145. Count of elements                        : 3130
  146. Stream size                              : 21.8 MiB (0%)
  147. Language                                 : Chinese
  148. Default                                  : No
  149. Forced                                   : No

  150. Text #7
  151. ID                                       : 10
  152. Format                                   : PGS
  153. Muxing mode                              : zlib
  154. Codec ID                                 : S_HDMV/PGS
  155. Codec ID/Info                            : Picture based subtitle format used on BDs/HD-DVDs
  156. Duration                                 : 2 h 9 min
  157. Bit rate                                 : 21.3 kb/s
  158. Count of elements                        : 3146
  159. Stream size                              : 19.7 MiB (0%)
  160. Language                                 : Chinese
  161. Default                                  : No
  162. Forced                                   : No

  163. Text #8
  164. ID                                       : 11
  165. Format                                   : PGS
  166. Muxing mode                              : zlib
  167. Codec ID                                 : S_HDMV/PGS
  168. Codec ID/Info                            : Picture based subtitle format used on BDs/HD-DVDs
  169. Duration                                 : 2 h 15 min
  170. Bit rate                                 : 18.5 kb/s
  171. Count of elements                        : 2938
  172. Stream size                              : 17.9 MiB (0%)
  173. Language                                 : Czech
  174. Default                                  : No
  175. Forced                                   : No

  176. Text #9
  177. ID                                       : 12
  178. Format                                   : PGS
  179. Muxing mode                              : zlib
  180. Codec ID                                 : S_HDMV/PGS
  181. Codec ID/Info                            : Picture based subtitle format used on BDs/HD-DVDs
  182. Duration                                 : 2 h 15 min
  183. Bit rate                                 : 21.8 kb/s
  184. Count of elements                        : 2946
  185. Stream size                              : 21.1 MiB (0%)
  186. Language                                 : Danish
  187. Default                                  : No
  188. Forced                                   : No

  189. Text #10
  190. ID                                       : 13
  191. Format                                   : PGS
  192. Muxing mode                              : zlib
  193. Codec ID                                 : S_HDMV/PGS
  194. Codec ID/Info                            : Picture based subtitle format used on BDs/HD-DVDs
  195. Duration                                 : 2 h 15 min
  196. Bit rate                                 : 20.8 kb/s
  197. Count of elements                        : 3072
  198. Stream size                              : 20.2 MiB (0%)
  199. Language                                 : Dutch
  200. Default                                  : No
  201. Forced                                   : No

  202. Text #11
  203. ID                                       : 14
  204. Format                                   : PGS
  205. Muxing mode                              : zlib
  206. Codec ID                                 : S_HDMV/PGS
  207. Codec ID/Info                            : Picture based subtitle format used on BDs/HD-DVDs
  208. Duration                                 : 2 h 9 min
  209. Bit rate                                 : 23.2 kb/s
  210. Count of elements                        : 3118
  211. Stream size                              : 21.5 MiB (0%)
  212. Language                                 : Estonian
  213. Default                                  : No
  214. Forced                                   : No

  215. Text #12
  216. ID                                       : 15
  217. Format                                   : PGS
  218. Muxing mode                              : zlib
  219. Codec ID                                 : S_HDMV/PGS
  220. Codec ID/Info                            : Picture based subtitle format used on BDs/HD-DVDs
  221. Duration                                 : 2 h 15 min
  222. Bit rate                                 : 19.1 kb/s
  223. Count of elements                        : 2914
  224. Stream size                              : 18.5 MiB (0%)
  225. Language                                 : Finnish
  226. Default                                  : No
  227. Forced                                   : No

  228. Text #13
  229. ID                                       : 16
  230. Format                                   : PGS
  231. Muxing mode                              : zlib
  232. Codec ID                                 : S_HDMV/PGS
  233. Codec ID/Info                            : Picture based subtitle format used on BDs/HD-DVDs
  234. Duration                                 : 2 h 15 min
  235. Bit rate                                 : 18.6 kb/s
  236. Count of elements                        : 2688
  237. Stream size                              : 18.0 MiB (0%)
  238. Language                                 : French
  239. Default                                  : No
  240. Forced                                   : No

  241. Text #14
  242. ID                                       : 17
  243. Format                                   : PGS
  244. Muxing mode                              : zlib
  245. Codec ID                                 : S_HDMV/PGS
  246. Codec ID/Info                            : Picture based subtitle format used on BDs/HD-DVDs
  247. Duration                                 : 2 h 15 min
  248. Bit rate                                 : 24.7 kb/s
  249. Count of elements                        : 3118
  250. Stream size                              : 23.9 MiB (0%)
  251. Language                                 : German
  252. Default                                  : No
  253. Forced                                   : No

  254. Text #15
  255. ID                                       : 18
  256. Format                                   : PGS
  257. Muxing mode                              : zlib
  258. Codec ID                                 : S_HDMV/PGS
  259. Codec ID/Info                            : Picture based subtitle format used on BDs/HD-DVDs
  260. Duration                                 : 2 h 9 min
  261. Bit rate                                 : 24.1 kb/s
  262. Count of elements                        : 2950
  263. Stream size                              : 22.3 MiB (0%)
  264. Language                                 : Greek
  265. Default                                  : No
  266. Forced                                   : No

  267. Text #16
  268. ID                                       : 19
  269. Format                                   : PGS
  270. Muxing mode                              : zlib
  271. Codec ID                                 : S_HDMV/PGS
  272. Codec ID/Info                            : Picture based subtitle format used on BDs/HD-DVDs
  273. Duration                                 : 2 h 15 min
  274. Bit rate                                 : 25.4 kb/s
  275. Count of elements                        : 3120
  276. Stream size                              : 24.6 MiB (0%)
  277. Language                                 : Italian
  278. Default                                  : No
  279. Forced                                   : No

  280. Text #17
  281. ID                                       : 20
  282. Format                                   : PGS
  283. Muxing mode                              : zlib
  284. Codec ID                                 : S_HDMV/PGS
  285. Codec ID/Info                            : Picture based subtitle format used on BDs/HD-DVDs
  286. Duration                                 : 2 h 9 min
  287. Bit rate                                 : 17.3 kb/s
  288. Count of elements                        : 2405
  289. Stream size                              : 15.9 MiB (0%)
  290. Language                                 : Japanese
  291. Default                                  : No
  292. Forced                                   : No

  293. Text #18
  294. ID                                       : 21
  295. Format                                   : PGS
  296. Muxing mode                              : zlib
  297. Codec ID                                 : S_HDMV/PGS
  298. Codec ID/Info                            : Picture based subtitle format used on BDs/HD-DVDs
  299. Duration                                 : 2 h 15 min
  300. Bit rate                                 : 14.7 kb/s
  301. Count of elements                        : 3024
  302. Stream size                              : 14.2 MiB (0%)
  303. Language                                 : Korean
  304. Default                                  : No
  305. Forced                                   : No

  306. Text #19
  307. ID                                       : 22
  308. Format                                   : PGS
  309. Muxing mode                              : zlib
  310. Codec ID                                 : S_HDMV/PGS
  311. Codec ID/Info                            : Picture based subtitle format used on BDs/HD-DVDs
  312. Duration                                 : 2 h 9 min
  313. Bit rate                                 : 25.0 kb/s
  314. Count of elements                        : 3128
  315. Stream size                              : 23.1 MiB (0%)
  316. Language                                 : Lithuanian
  317. Default                                  : No
  318. Forced                                   : No

  319. Text #20
  320. ID                                       : 23
  321. Format                                   : PGS
  322. Muxing mode                              : zlib
  323. Codec ID                                 : S_HDMV/PGS
  324. Codec ID/Info                            : Picture based subtitle format used on BDs/HD-DVDs
  325. Duration                                 : 2 h 15 min
  326. Bit rate                                 : 18.6 kb/s
  327. Count of elements                        : 2906
  328. Stream size                              : 17.9 MiB (0%)
  329. Language                                 : Norwegian
  330. Default                                  : No
  331. Forced                                   : No

  332. Text #21
  333. ID                                       : 24
  334. Format                                   : PGS
  335. Muxing mode                              : zlib
  336. Codec ID                                 : S_HDMV/PGS
  337. Codec ID/Info                            : Picture based subtitle format used on BDs/HD-DVDs
  338. Duration                                 : 2 h 15 min
  339. Bit rate                                 : 21.6 kb/s
  340. Count of elements                        : 2950
  341. Stream size                              : 20.9 MiB (0%)
  342. Language                                 : Polish
  343. Default                                  : No
  344. Forced                                   : No

  345. Text #22
  346. ID                                       : 25
  347. Format                                   : PGS
  348. Muxing mode                              : zlib
  349. Codec ID                                 : S_HDMV/PGS
  350. Codec ID/Info                            : Picture based subtitle format used on BDs/HD-DVDs
  351. Duration                                 : 2 h 9 min
  352. Bit rate                                 : 23.7 kb/s
  353. Count of elements                        : 3094
  354. Stream size                              : 21.9 MiB (0%)
  355. Language                                 : Portuguese
  356. Default                                  : No
  357. Forced                                   : No

  358. Text #23
  359. ID                                       : 26
  360. Format                                   : PGS
  361. Muxing mode                              : zlib
  362. Codec ID                                 : S_HDMV/PGS
  363. Codec ID/Info                            : Picture based subtitle format used on BDs/HD-DVDs
  364. Duration                                 : 2 h 9 min
  365. Bit rate                                 : 23.8 kb/s
  366. Count of elements                        : 2924
  367. Stream size                              : 22.0 MiB (0%)
  368. Language                                 : Portuguese
  369. Default                                  : No
  370. Forced                                   : No

  371. Text #24
  372. ID                                       : 27
  373. Format                                   : PGS
  374. Muxing mode                              : zlib
  375. Codec ID                                 : S_HDMV/PGS
  376. Codec ID/Info                            : Picture based subtitle format used on BDs/HD-DVDs
  377. Duration                                 : 2 h 15 min
  378. Bit rate                                 : 24.2 kb/s
  379. Count of elements                        : 3100
  380. Stream size                              : 23.4 MiB (0%)
  381. Language                                 : Romanian
  382. Default                                  : No
  383. Forced                                   : No

  384. Text #25
  385. ID                                       : 28
  386. Format                                   : PGS
  387. Muxing mode                              : zlib
  388. Codec ID                                 : S_HDMV/PGS
  389. Codec ID/Info                            : Picture based subtitle format used on BDs/HD-DVDs
  390. Duration                                 : 2 h 9 min
  391. Bit rate                                 : 23.9 kb/s
  392. Count of elements                        : 3048
  393. Stream size                              : 22.1 MiB (0%)
  394. Language                                 : Russian
  395. Default                                  : No
  396. Forced                                   : No

  397. Text #26
  398. ID                                       : 29
  399. Format                                   : PGS
  400. Muxing mode                              : zlib
  401. Codec ID                                 : S_HDMV/PGS
  402. Codec ID/Info                            : Picture based subtitle format used on BDs/HD-DVDs
  403. Duration                                 : 2 h 15 min
  404. Bit rate                                 : 21.4 kb/s
  405. Count of elements                        : 2838
  406. Stream size                              : 20.7 MiB (0%)
  407. Language                                 : Spanish
  408. Default                                  : No
  409. Forced                                   : No

  410. Text #27
  411. ID                                       : 30
  412. Format                                   : PGS
  413. Muxing mode                              : zlib
  414. Codec ID                                 : S_HDMV/PGS
  415. Codec ID/Info                            : Picture based subtitle format used on BDs/HD-DVDs
  416. Duration                                 : 2 h 15 min
  417. Bit rate                                 : 22.4 kb/s
  418. Count of elements                        : 3014
  419. Stream size                              : 21.6 MiB (0%)
  420. Language                                 : Spanish
  421. Default                                  : No
  422. Forced                                   : No

  423. Text #28
  424. ID                                       : 31
  425. Format                                   : PGS
  426. Muxing mode                              : zlib
  427. Codec ID                                 : S_HDMV/PGS
  428. Codec ID/Info                            : Picture based subtitle format used on BDs/HD-DVDs
  429. Duration                                 : 2 h 15 min
  430. Bit rate                                 : 17.8 kb/s
  431. Count of elements                        : 2680
  432. Stream size                              : 17.2 MiB (0%)
  433. Language                                 : Swedish
  434. Default                                  : No
  435. Forced                                   : No

  436. Text #29
  437. ID                                       : 32
  438. Format                                   : PGS
  439. Muxing mode                              : zlib
  440. Codec ID                                 : S_HDMV/PGS
  441. Codec ID/Info                            : Picture based subtitle format used on BDs/HD-DVDs
  442. Duration                                 : 2 h 15 min
  443. Bit rate                                 : 21.4 kb/s
  444. Count of elements                        : 3104
  445. Stream size                              : 20.7 MiB (0%)
  446. Language                                 : Thai
  447. Default                                  : No
  448. Forced                                   : No

  449. Text #30
  450. ID                                       : 33
  451. Format                                   : PGS
  452. Muxing mode                              : zlib
  453. Codec ID                                 : S_HDMV/PGS
  454. Codec ID/Info                            : Picture based subtitle format used on BDs/HD-DVDs
  455. Duration                                 : 2 h 9 min
  456. Bit rate                                 : 26.6 kb/s
  457. Count of elements                        : 3084
  458. Stream size                              : 24.6 MiB (0%)
  459. Language                                 : Turkish
  460. Default                                  : No
  461. Forced                                   : No

  462. Menu
  463. 00:00:00.000                             : en:00:00:00.000
  464. 00:07:45.924                             : en:00:07:45.924
  465. 00:14:39.670                             : en:00:14:39.670
  466. 00:22:57.543                             : en:00:22:57.543
  467. 00:32:58.226                             : en:00:32:58.226
  468. 00:41:25.066                             : en:00:41:25.066
  469. 00:48:42.503                             : en:00:48:42.503
  470. 00:55:10.933                             : en:00:55:10.933
  471. 01:03:17.293                             : en:01:03:17.293
  472. 01:12:29.011                             : en:01:12:29.011
  473. 01:17:51.750                             : en:01:17:51.750
  474. 01:24:38.949                             : en:01:24:38.949
  475. 01:34:04.556                             : en:01:34:04.556
  476. 01:42:59.548                             : en:01:42:59.548
  477. 01:52:16.355                             : en:01:52:16.355
  478. 02:00:52.912                             : en:02:00:52.912



復制代碼
復制代碼


                                                                                                



[btshow=0]
本帖隱藏的下載地址需要VIP會員才可瀏覽,您需要升級才可瀏覽,點擊這里升級VIP
[/btshow]
分享到:  QQ好友和群QQ好友和群
收藏收藏
VIP會員免費任意下載本站所有資源!---點擊開通
回復

使用道具 舉報

級別:群眾演員 Lv.3

注冊時間
2018-5-18
最后登錄
2018-7-16
聽眾
8
收聽
0
主題
0
藍光幣
1 枚
貢獻
0 點
沙發
發表于 2018-7-7 11:47:58 | 只看該作者
超凡蜘蛛俠/蜘蛛俠:驚世現新 The.Amazing.Spider-Man.2012.2160p.BluRay.x265.10bit.HDR.TrueHD.7.1.Atmos-TERMiNAL
VIP會員免費任意下載本站所有資源!---點擊開通
回復

使用道具 舉報

級別:榮升主角 Lv.5

注冊時間
2018-8-8
最后登錄
2019-9-8
聽眾
14
收聽
0
主題
0
藍光幣
754 枚
貢獻
0 點
板凳
發表于 2018-11-14 23:42:58 | 只看該作者
多謝分享
VIP會員免費任意下載本站所有資源!---點擊開通
回復

使用道具 舉報

級別:初級觀眾 Lv.1

注冊時間
2019-9-26
最后登錄
2019-10-11
聽眾
0
收聽
0
主題
0
藍光幣
2 枚
貢獻
0 點
地板
發表于 3 天前 | 只看該作者
謝謝分享,真太好了
VIP會員免費任意下載本站所有資源!---點擊開通
回復

使用道具 舉報

懶得打字嘛,點擊右側快捷回復 【右側內容,后臺自定義】
您需要登錄后才可以回帖 登錄 | 立即注冊

本版積分規則

QQ|Archiver|手機版|小黑屋| 中國高清網 |網站地圖

GMT+8, 2019-10-11 17:05 , Processed in 0.226723 second(s), 38 queries .

Powered by HDchina X3.4

Copyright 2017-2019©HDchina.All right reserved

返回頂部 聯系我們
必赢客时时彩群计划